Робот по имени Чаппи / Chappie (Нил Бломкамп | Neill Blomkamp) [2015, США, Мексика, фантастика, боевик, триллер, WEB-DLRip] (Dub)

Ответить на тему
 

ximik ®

Стаж: 6 лет 9 месяцев

Сообщений: 29

Симпатии: 30

Робот по имени Чаппи / Chappie
Страна: США, Мексика
Жанр: фантастика, боевик, триллер
Год выпуска: 2015
Продолжительность: 01:52:09
Перевод: Профессиональный (дублированный)
Cубтитры: нет
Режиссер: Нил Бломкамп | Neill Blomkamp
В ролях: Шарлто Копли, Дев Патель, Ниндзя, Йоланди Фиссер, Хосе Пабло Кантильо, Хью Джекман, Сигурни Уивер, Брэндон Оре, Джонни Селема, Андерсон Купер
Описание: Чаппи — вундеркинд. Как и любой другой ребенок, он попадает под влияние своего окружения, и только его сердце и душа помогут ему найти свой путь. Но есть одна вещь, которая делает Чаппи непохожим на всех остальных: он — первый робот, способный чувствовать и думать.
Доп. информация: Сценарий: Нил Бломкамп, Тэрри Татчелл
Продюсер: Саймон Кинберг, Джеймс Битонти, Виктория Буркхарт
Оператор: Трент Опалок
Композитор: Ханс Циммер
Художник: Жуль Кук, Бобби Кардосо, Эмилия Ру
Монтаж: Джулиан Кларк, Марк ГолдблаттБюджет: $49 000 000Сборы в США: $31 569 268
Сборы в мире: + $63 200 000 = $94 769 268
Сборы в России: $7 146 696Премьера (мир): 4 марта 2015
Премьера (РФ): 5 марта 2015, «WDSSPR»Релиз на Blu-Ray: 11 июня 2015, «CP Дистрибуция»
Релиз на DVD: 11 июня 2015, «CP Дистрибуция»Зрители: 1.8 млнВозраст: зрителям, достигшим 16 лет
Рейтинг MPAA: лицам до 17 лет обязательно присутствие взрослого
Качество видео: WEB-DLRip
Формат видео: AVI
Видео: 720x304 23.976fps 1343kbps
Аудио: AC3 48000Hz 6ch 384kbps

MediaInfo

General
Complete name : D:\Torrent\Torrentdan\Tugamagan\ChappI.2015.D.WEB-DLRip.1.46GB.avi
Format : AVI
Format/Info : Audio Video Interleave
File size : 1.46 GiB
Duration : 2h 0mn
Overall bit rate : 1 737 Kbps
Writing application : VirtualDubMod 1.5.10.3 | www.virtualdub-fr.org || (build 2550/release)
Writing library : VirtualDubMod build 2550/release
Video
ID : 0
Format : MPEG-4 Visual
Format profile : Advanced [email protected]
Format settings, BVOP : 2
Format settings, QPel : No
Format settings, GMC : No warppoints
Format settings, Matrix : Default (MPEG)
Codec ID : XVID
Codec ID/Hint : XviD
Duration : 2h 0mn
Bit rate : 1 344 Kbps
Width : 720 pixels
Height : 304 pixels
Display aspect ratio : 2.35:1
Frame rate : 23.976 fps
Color space : YUV
Chroma subsampling : 4:2:0
Bit depth : 8 bits
Scan type : Progressive
Compression mode : Lossy
Bits/(Pixel*Frame) : 0.256
Stream size : 1.13 GiB (77%)
Writing library : XviD 1.2.1 (UTC 2008-12-04)
Audio
ID : 1
Format : AC-3
Format/Info : Audio Coding 3
Mode extension : CM (complete main)
Format settings, Endianness : Big
Codec ID : 2000
Duration : 2h 0mn
Bit rate mode : Constant
Bit rate : 384 Kbps
Channel(s) : 6 channels
Channel positions : Front: L C R, Side: L R, LFE
Sampling rate : 48.0 KHz
Bit depth : 16 bits
Compression mode : Lossy
Stream size : 331 MiB (22%)
Alignment : Split accross interleaves
Interleave, duration : 42 ms (1.00 video frame)
Interleave, preload duration : 500 ms

Скриншоты





Последний раз редактировалось: ximik (2015-05-14 16:29), всего редактировалось 7 раз(а)

Создавать темы 14-Май-2015 15:02

[Профиль]  [ЛС] 

Suxrob89

Стаж: 7 лет 2 месяца

Сообщений: 933

Симпатии: 564

ChappI.2015.D.WEB-DLRip.1.46GB.Ooops.avi
Убери рекламу

Создавать темы 14-Май-2015 15:06

[Профиль]  [ЛС] 

MsI_HET

Стаж: 4 года

Сообщений: 9

Симпатии: 4

Скрины нормально оформи

Создавать темы 14-Май-2015 15:08

[Профиль]  [ЛС] 

ximik ®

Стаж: 6 лет 9 месяцев

Сообщений: 29

Симпатии: 30

Suxrob89, Сделано! ..MsI_HET, Скринами чета не получается у меня...

Создавать темы 14-Май-2015 15:18

[Профиль]  [ЛС] 

X3JumperRaZ0R

Стаж: 5 лет 3 месяца

Сообщений: 177

Симпатии: 151

Где сделано реклама всё ещё стоит у тя щя закроют релиз и постеры по человечески сделай

Создавать темы 14-Май-2015 15:22

[Профиль]  [ЛС] 

Booom

Стаж: 4 года 9 месяцев

Сообщений: 32

Симпатии: 49

https://tas-ix.net/viewtopic.php?t=106384 прожу всех пройти по этой ссыкле

Создавать темы 14-Май-2015 15:22

[Профиль]  [ЛС] 

Каротажник

Стаж: 4 года

Сообщений: 195

Симпатии: 211

ximik,
Видео: XviD
Аудио: AC3
до пишите
Видео: разрешение кадра (в пикселях), значение видеобитрейта (kbps) и частота кадров в секунду (fps) (пример720х304 , 23.976 fps, 1773 Kbps )
Аудио: значение аудиобитрейта (kbps), количество аудиоканалов (ch) для каждой из дорожек. (пример48.0 KHz, AC-3, 384 Kbps (6 ch) )
Качество видео: DVDRip
измените на WEB-DLRip


Последний раз редактировалось: Каротажник (2015-05-14 16:16), всего редактировалось 3 раз(а)

Создавать темы 14-Май-2015 15:37

[Профиль]  [ЛС] 

Booom

Стаж: 4 года 9 месяцев

Сообщений: 32

Симпатии: 49

LUKA, смотри суда https://tas-ix.net/viewtopic.php?t=106384 , и добро дай

Создавать темы 14-Май-2015 15:39

[Профиль]  [ЛС] 

MsI_HET

Стаж: 4 года

Сообщений: 9

Симпатии: 4

Вот в HD и с Проф звуком https://tas-ix.net/viewtopic.php?t=106385

Создавать темы 14-Май-2015 15:41

[Профиль]  [ЛС] 

bullet

Стаж: 4 года 7 месяцев

Сообщений: 382

Симпатии: 37

круто

Создавать темы 05-Июн-2015 10:19

[Профиль]  [ЛС] 
Показать сообщения:    
Ответить на тему

Текущее время: 19-Окт 21:34

Часовой пояс: UTC + 5



Вы не можете начинать темы
Вы не можете отвечать на сообщения
Вы не можете редактировать свои сообщения
Вы не можете удалять свои сообщения
Вы не можете голосовать в опросах
Вы не можете прикреплять файлы к сообщениям
Вы не можете скачивать файлы