Девушка (Бета) / Girlfriend (Kari) (Хаяси Наотака) [TV] [01-12 из 12] [без хардсаба] [RUS(int)] [2014 г., повседневность, HDTVrip] [720p]

Ответить на тему
 

SoluSoull ®

Стаж: 2 года 7 месяцев

Сообщений: 379

Симпатии: 452

Girlfriend (Kari)
Девушка (Бета)-Производство: Япония
Год выпуска: 2014
Жанр: повседневность
Тип: ТВ (12 эп.), 25 мин.-Перевод:
Озвучка от Гамлетка Цезаревна, Holly, NASTR, Nami Li, Jade & 9й Неизвестный (anidub)-Режиссёр: Хаяси Наотака
Автор оригинала: Ёкотэ Митико
Студии: SILVER LINK & C-Station-Описание: Много красавиц в Ямато у нас, звезды сияют во мраке их глаз! Ну а лучшие из лучших, понятно, учатся в старшей школе, где занимаются чем угодно – от ухода за кошками до изучения японской культуры. Так что встречайте новых героинь – очаровательную гимнастку Кокоми, неугомонную журналистку Аканэ, «литературную барышню» Фумио, фотографа Елену и примкнувшую к ним француженку Хлою (без иностранок нынче никак)! Да, демонов, паразитов и боевых роботов не будет, зато нас ждут веселые будни и праздники множества хороших подруг.
Простите, спросите вы, а в чем смысл? Где идея, сюжет, конечный результат, к чему надо стремиться? Да бросьте вы, господа: в стране, возводящей в культ ритуал любования прекрасным, процесс – и есть результат. Давайте просто смотреть на девчат и получать удовольствие. Как говорится – смотри, но не трогай!-Качество: HDTVrip \ Формат: MKV
Тип видео: без хардсаба
Видео: AVC, 1280х720(16/9), 1776 Kbps, 23.976fps, 8 bits
Аудио: AC-3, 2 ch, 384кбит/с, 48000Hz-

Скриншоты

MI

General
Unique ID : 220561685110220502897355904789705539955 (0xA5EEA2A92B8032ECABB05FDEA3664173)
Complete name : E:\HDRips\Girlfriend (Kari)\[AniDub]_Girlfriend_(Kari)_[01]_[720p_x264_Aac]_[MVO].mkv
Format : Matroska
Format version : Version 2
File size : 376 MiB
Duration : 24mn 24s
Overall bit rate : 2 156 Kbps
Encoded date : UTC 2014-10-16 22:44:51
Writing application : mkvmerge v7.0.0 ('Where We Going') 32bit built on Jun 9 2014 15:08:34
Writing library : libebml v1.3.0 + libmatroska v1.4.1
Attachements : OpenSans-Semibold.ttf
DURATION : 00:24:24.672000000
NUMBER_OF_FRAMES : 45771
NUMBER_OF_BYTES : 70304256
_STATISTICS_WRITING_APP : mkvmerge v7.0.0 ('Where We Going') 32bit built on Jun 9 2014 15:08:34
_STATISTICS_WRITING_DATE_UT : 2014-10-16 22:44:51
_STATISTICS_TAGS : BPS DURATION NUMBER_OF_FRAMES NUMBER_OF_BYTES
Video
ID : 1
Format : AVC
Format/Info : Advanced Video Codec
Format profile : [email protected]
Format settings, CABAC : Yes
Format settings, ReFrames : 6 frames
Codec ID : V_MPEG4/ISO/AVC
Duration : 24mn 24s
Bit rate : 1 776 Kbps
Width : 1 280 pixels
Height : 720 pixels
Display aspect ratio : 16:9
Frame rate mode : Constant
Frame rate : 23.976 fps
Color space : YUV
Chroma subsampling : 4:2:0
Bit depth : 8 bits
Scan type : Progressive
Bits/(Pixel*Frame) : 0.080
Stream size : 302 MiB (80%)
Writing library : x264 core 120 r2120 0c7dab9
Encoding settings : cabac=1 / ref=6 / deblock=1:1:1 / analyse=0x3:0x113 / me=umh / subme=8 / psy=1 / psy_rd=0.40:0.00 / mixed_ref=1 / me_range=16 / chroma_me=1 / trellis=1 / 8x8dct=1 / cqm=0 / deadzone=21,11 / fast_pskip=1 / chroma_qp_offset=-2 / threads=4 / sliced_threads=0 / nr=0 / decimate=1 / interlaced=0 / bluray_compat=0 / constrained_intra=0 / bframes=3 / b_pyramid=2 / b_adapt=2 / b_bias=0 / direct=3 / weightb=1 / open_gop=0 / weightp=2 / keyint=250 / keyint_min=23 / scenecut=40 / intra_refresh=0 / rc_lookahead=50 / rc=2pass / mbtree=1 / bitrate=1776 / ratetol=1.0 / qcomp=0.60 / qpmin=0 / qpmax=69 / qpstep=4 / cplxblur=20.0 / qblur=0.5 / vbv_maxrate=3552 / vbv_bufsize=8880 / nal_hrd=none / ip_ratio=1.40 / aq=1:0.60
Default : Yes
Forced : Yes
Audio
ID : 2
Format : AC-3
Format/Info : Audio Coding 3
Mode extension : CM (complete main)
Format settings, Endianness : Big
Codec ID : A_AC3
Duration : 24mn 24s
Bit rate mode : Constant
Bit rate : 384 Kbps
Channel(s) : 2 channels
Channel positions : Front: L R
Sampling rate : 48.0 KHz
Bit depth : 16 bits
Compression mode : Lossy
Stream size : 67.0 MiB (18%)
Default : Yes
Forced : No

Создавать темы 14-Май-2015 21:00

[Профиль]  [ЛС] 

Sarashiki

Стаж: 2 года 7 месяцев

Сообщений: 85

Симпатии: 56

все таки 1.5 мб быстрее чем 512 кб :D

Создавать темы 14-Май-2015 21:16

[Профиль]  [ЛС] 
Показать сообщения:    
Ответить на тему

Текущее время: 21-Окт 17:25

Часовой пояс: UTC + 5



Вы не можете начинать темы
Вы не можете отвечать на сообщения
Вы не можете редактировать свои сообщения
Вы не можете удалять свои сообщения
Вы не можете голосовать в опросах
Вы не можете прикреплять файлы к сообщениям
Вы не можете скачивать файлы