Драконий Жемчуг / Dragon Ball (Нисио Дайсукэ) [TV] [Без хардсаба] [01-153 из 153] [RUS(int),JAP] [1986г., приключения, комедия, фэнтези, сёнэн DVDRip]

Ответить на тему
 

SoluSoull ®

Стаж: 2 года 7 месяцев

Сообщений: 379

Симпатии: 452

Dragon Ball
Драконий Жемчуг-Производство: Япония
Год выпуска: 1986
Жанр: приключения, комедия, фэнтези, сёнэн
Тип: ТВ (153 эп.), 25 мин.-Перевод:
Озвучка от MCShamaN (anidub)-Режиссёр: Нисио Дайсукэ
Автор оригинала: Торияма Акира
Студия: TOEI ANIMATION-Описание: Вдали от цивилизации в горной глуши живет мальчик Сон Гоку. Ловит рыбу размером со свой дом, учит вежливости местных хищников, а также совершенствует по наказу приемного дедушки кунг-фу. Дедушка умер, оставив внуку в наследство чудный шар – драгонболл. И Гоку совсем невдомек, что по всему миру разбросаны шесть «близнецов» этого шара, ждущие случая воссоединиться с потерянными «братьями», чтобы исполнить одно заветное желание владельца и снова расстаться.
Однажды к «бирюку» Гоку заявляется странное «существо» – девочка Бульма – и начинает соблазнять героя перспективами похода по грибучим лесам, встреч с очеловеченным зверьем и схваток с трехглазыми и безносыми оппонентами, Дракулой-кикбоксером, Терминатором и прочими соперниками на любой вкус. И если герой согласится, все это станет фоном большого приключения, цель которого – собрать драгонболлы…
«Драгонболл» – самое настоящее «старое доброе» сёнэн-аниме, где пожилой извращенец на деле оказывается величайшим рукопашным бойцом, главный герой по ходу путешествия заводит себе толпу козырных друзей, а создатели умудряются дать логичное объяснение даже нимбам над головами некоторых персонажей.-Качество: DVDRip \ Формат: AVI
Тип видео: без хардсаба
Видео: DivX 5 640x480 23.98fps 1533kbps
Аудио RUS: MPEG Audio Layer 3 44100Hz stereo 160kbps
Аудио JAP: MPEG Audio Layer 3 48000Hz stereo 160kbps-

Скриншоты

MI

General
Complete name : F:\[RAZNEW]\Dragon Ball\сезон 1\Dragon_Ball_TV_[001]_[RUS_JAP]_[DivX_640x480]_[MCShamaN].avi
Format : AVI
Format/Info : Audio Video Interleave
File size : 329 MiB
Duration : 24mn 39s
Overall bit rate : 1 868 Kbps
Writing application : VirtualDubMod 1.5.10.2 (build 2540/release)
Writing library : VirtualDubMod build 2540/release
Video
ID : 0
Format : MPEG-4 Visual
Format settings, BVOP : 1
Format settings, QPel : No
Format settings, GMC : No warppoints
Format settings, Matrix : Default (H.263)
Muxing mode : Packed bitstream
Codec ID : DX50
Codec ID/Hint : DivX 5
Duration : 24mn 39s
Bit rate : 1 534 Kbps
Width : 640 pixels
Height : 480 pixels
Display aspect ratio : 4:3
Frame rate : 23.976 fps
Color space : YUV
Chroma subsampling : 4:2:0
Bit depth : 8 bits
Scan type : Progressive
Compression mode : Lossy
Bits/(Pixel*Frame) : 0.208
Stream size : 271 MiB (82%)
Writing library : DivX 5.0.5 (UTC 2003-04-24)
Audio #1
ID : 1
Format : MPEG Audio
Format version : Version 1
Format profile : Layer 3
Codec ID : 55
Codec ID/Hint : MP3
Duration : 24mn 39s
Bit rate mode : Constant
Bit rate : 160 Kbps
Channel(s) : 2 channels
Sampling rate : 44.1 KHz
Compression mode : Lossy
Stream size : 28.2 MiB (9%)
Alignment : Split accross interleaves
Interleave, duration : 42 ms (1.00 video frame)
Interleave, preload duratio : 500 ms
Title : RUS
Audio #2
ID : 2
Format : MPEG Audio
Format version : Version 1
Format profile : Layer 3
Mode : Joint stereo
Mode extension : MS Stereo
Codec ID : 55
Codec ID/Hint : MP3
Duration : 24mn 39s
Bit rate mode : Constant
Bit rate : 160 Kbps
Channel(s) : 2 channels
Sampling rate : 48.0 KHz
Compression mode : Lossy
Stream size : 28.2 MiB (9%)
Alignment : Split accross interleaves
Interleave, duration : 42 ms (1.00 video frame)
Interleave, preload duratio : 500 ms
Title : JAP


Последний раз редактировалось: SoluSoull (2015-05-14 22:21), всего редактировалось 1 раз

Создавать темы 14-Май-2015 22:12

[Профиль]  [ЛС] 

SoluSoull ®

Стаж: 2 года 7 месяцев

Сообщений: 379

Симпатии: 452

Оу круто, отдельный раздел для ДБ таки сделали, спасибо)

Комментарий от [email protected]


Нус, теперь дело за Вами. По сути весь этот раздел держится на Вас)

Создавать темы 03-Июн-2015 17:00

[Профиль]  [ЛС] 
Показать сообщения:    
Ответить на тему

Текущее время: 22-Окт 18:34

Часовой пояс: UTC + 5



Вы не можете начинать темы
Вы не можете отвечать на сообщения
Вы не можете редактировать свои сообщения
Вы не можете удалять свои сообщения
Вы не можете голосовать в опросах
Вы не можете прикреплять файлы к сообщениям
Вы не можете скачивать файлы