Территория / Территория (Александр Мельник) [2014, Россия, драма, приключения, WEB-DLRip] [iTunes]

Ответить на тему
 

RecobaZico ®

Стаж: 2 года 6 месяцев

Сообщений: 22

Симпатии: 94

Территория
Страна: Россия
Жанр: драма, приключения
Год выпуска: 2014
Продолжительность: 02:37:37-Перевод: Оригинал [iTunes]
Cубтитры: нет
Режиссер: Александр Мельник-В ролях: Константин Лавроненко, Григорий Добрыгин, Егор Бероев, Ксения Кутепова, Евгений Цыганов, Владислав Абашин, Герасим Васильев, Константин Шелестун, Константин Балакирев, Олег Шапков-Описание: Территория - это место, где люди проверяются на прочность. Необозримые пространства, где тундра встречается с ледяными торосами Ледовитого океана. Суровый русский север, которому способны бросить вызов немногие. Геолог Илья Чинков, одержимый идеей найти легендарное золото Территории, собирает команду смельчаков, готовых поставить на карту все, включая собственные жизни.-Доп. информация:
 -Качество видео: WEB-DLRip
Формат видео: AVI-Видео: XviD, 1397 kb/s, 720x304
Аудио: AC3, 384 kb/s (6 ch)

MediaInfo

Location: D:\Рекоба2015\Terr1r0ri9.2015.O.WEB-DLRip.1.46.avi
Filename: Terr1r0ri9.2015.O.WEB-DLRip.1.46.avi
File format: .avi (AVI)
File size: 1.46 GB
Duration: 2h 31mn
Navigate by chapters: Nope
Bitrate (all streams): 1 379 Kbps
...with: VirtualDubMod 1.5.10.3 | www.virtualdub-fr.org || (build 2550/release)
...by using: VirtualDubMod build 2550/release
Title: Terr1r0ri9.2015.O.WEB-DLRip.1.46
Stream type: Video
Duration: 02:31:52
Codec: MPEG-4 Visual
Codec Profile: Advanced [email protected]
Codec ID: XVID
Video Size: 720 x 304 (2.35:1)
Frame rate: 25.000 fps
Stream size: 1.05 GiB (71%)
Bitrate: 985 Kbps
Codec library: XviD 1.2.1 (UTC 2008-12-04)
Colorspace: YUV
Scantype: Progressive
Bitdepth: 8 bits
Stream type: Audio #1
Duration: 02:31:52.320
Codec: AC-3
Codec ID: 2000
Samplerate: 48.0 KHz
Channels: 6 channels
Bitrate: 384 Kbps
Bitrate/Mode: Constant
Stream size: 417 MiB (28%)
Bitdepth: 16 bits
Compression mode: Lossy

Скриншот c названием фильма

Скриншоты





Последний раз редактировалось: RecobaZico (2015-05-15 20:15), всего редактировалось 2 раз(а)

Создавать темы 15-Май-2015 20:02

[Профиль]  [ЛС] 

Топик был перенесен из форума Фильмы за 2014 в форум Фильмы за 2014
LUKA

Создавать темы 15-Май-2015 20:13

 

sprut66

Стаж: 4 года 9 месяцев

Сообщений: 51

Симпатии: 5

Скорости пожалуйста

Создавать темы 28-Авг-2015 13:25

[Профиль]  [ЛС] 
Показать сообщения:    
Ответить на тему

Текущее время: 21-Ноя 00:21

Часовой пояс: UTC + 5



Вы не можете начинать темы
Вы не можете отвечать на сообщения
Вы не можете редактировать свои сообщения
Вы не можете удалять свои сообщения
Вы не можете голосовать в опросах
Вы не можете прикреплять файлы к сообщениям
Вы не можете скачивать файлы