Сестричка Бетти / Nurse Betty (Нил ЛаБут) [1999, Германия, США, Триллер, драма, мелодрама, комедия, криминал, DVDRip] (Dub)

Ответить на тему
 

Decadence ®

Стаж: 5 лет

Сообщений: 65

Симпатии: 32

Сестричка Бетти / Nurse Betty
Страна: Германия, США
Жанр: Триллер, драма, мелодрама, комедия, криминал
Год выпуска: 1999
Продолжительность: 01:45:19
Перевод: Профессиональный (дублированный)
Cубтитры: нет
Режиссер: Нил ЛаБут
В ролях: Морган Фриман, Рене Зеллвегер, Крис Рок, Грег Киннер, Аарон Экхарт, Тиа Тексада, Криспин Гловер, Прюитт Тэйлор Винс, Эллисон Дженни, Кэтлин Уилхойт
Описание: Брать чужое нехорошо. Но нечистый на руку продавец автомобилей Дел Сайзмор забыл эту простую истину. За что и был наказан. Два киллера: Чарли и Уэсли помогли ему переселиться в мир иной.
Невольной свидетельницей этого события стала жена Дела — Бетти, в результате чего ее немного заклинило, и она отправилась искать счастье в объятиях доктора Рэвелла, персонажа популярного телесериала.
А по пятам за ней следует парочка убийц, у которых осталось к семье Сайзморов незавершенное дело…
 
Качество видео: DVDRip
Формат видео: AVI
Видео: XviD, 672x272, 25.000 fps, 847 kbps
Аудио: MP3, 48.0 KHz, 2 channels, 128 kbps

MediaInfo

General
Complete name : Nurse Betty.avi
Format : AVI
Format/Info : Audio Video Interleave
File size : 742 MiB
Duration : 1h 45mn
Overall bit rate : 984 Kbps
Writing application : VirtualDubMod 1.6.0.0 SURROUND (build 2560/release)
Writing library : VirtualDubMod build 2560/release
Video #0
ID : 0
Format : MPEG-4 Visual
Format profile : Advanced [email protected]
Format settings, BVOP : 1
Format settings, QPel : No
Format settings, GMC : No warppoints
Format settings, Matrix : Default (H.263)
Muxing mode : Packed bitstream
Codec ID : XVID
Codec ID/Hint : XviD
Duration : 1h 45mn
Bit rate : 847 Kbps
Width : 672 pixels
Height : 272 pixels
Display aspect ratio : 2.471
Frame rate : 25.000 fps
Color space : YUV
Chroma subsampling : 4:2:0
Bit depth : 8 bits
Scan type : Progressive
Compression mode : Lossy
Bits/(Pixel*Frame) : 0.185
Stream size : 638 MiB (86%)
Writing library : XviD 1.1.0 (UTC 2005-11-22)
Audio #1
ID : 1
Format : MPEG Audio
Format version : Version 1
Format profile : Layer 3
Mode : Joint stereo
Mode extension : MS Stereo
Codec ID : 55
Codec ID/Hint : MP3
Duration : 1h 45mn
Bit rate mode : Constant
Bit rate : 128 Kbps
Channel(s) : 2 channels
Sampling rate : 48.0 KHz
Compression mode : Lossy
Stream size : 96.4 MiB (13%)
Alignment : Aligned on interleaves
Interleave, duration : 40 ms (1.00 video frame)
Interleave, preload duration : 504 ms
Writing library : LAME3.97b
Encoding settings : -m j -V 4 -q 2 -lowpass 17 -b 128

Скриншот c названием фильма

Скриншоты



Создавать темы 15-Май-2015 21:15

[Профиль]  [ЛС] 
Показать сообщения:    
Ответить на тему

Текущее время: 19-Окт 14:17

Часовой пояс: UTC + 5



Вы не можете начинать темы
Вы не можете отвечать на сообщения
Вы не можете редактировать свои сообщения
Вы не можете удалять свои сообщения
Вы не можете голосовать в опросах
Вы не можете прикреплять файлы к сообщениям
Вы не можете скачивать файлы