Прощай, детка, прощай / Gone Baby Gone (Бен Аффлек) [2007, США, Триллер, драма, криминал, детектив, HDRip] (MVO)

Ответить на тему
 

Decadence ®

Стаж: 5 лет

Сообщений: 65

Симпатии: 32

Прощай, детка, прощай / Gone Baby Gone
Страна: США
Жанр: Триллер, драма, криминал, детектив
Год выпуска: 2007
Продолжительность: 01:53:55
Перевод: Профессиональный (многоголосый закадровый)
Cубтитры: нет
Режиссер: Бен Аффлек
В ролях: Кейси Аффлек, Мишель Монахэн, Морган Фриман, Эд Харрис, Эми Райан, Джон Эштон, Эми Мэдиган, Титус Уэлливер, Майкл Кеннет Уильямс, Эди Гатеги
Описание: В пригороде Бостона без вести пропадает четырехлетняя Аманда МакКриди. Когда официальные власти прекращают попытки найти исчезнувшую девочку, ее тетя упрашивает двух частных детективов, Патрика Кензи и Анджелу Дженнаро, начать расследование.
Поначалу они не торопятся взяться за безнадежное дело, однако новые обстоятельства заставляют их поставить на кон не только собственные профессиональные репутации, но и жизни.
 
Качество видео: HDRip
Формат видео: AVI
Видео: XviD, 624x336, 25.000 fps, 752 kbps
Аудио: MP3, 48.0 KHz, 2 channels, 160 kbps

MediaInfo

General
Complete name : Gone Baby Gone.avi
Format : AVI
Format/Info : Audio Video Interleave
File size : 751 MiB
Duration : 1h 53mn
Overall bit rate : 921 Kbps
Video #0
ID : 0
Format : MPEG-4 Visual
Format profile : Advanced [email protected]
Format settings, BVOP : 1
Format settings, QPel : No
Format settings, GMC : No warppoints
Format settings, Matrix : Custom
Codec ID : XVID
Codec ID/Hint : XviD
Duration : 1h 53mn
Bit rate : 752 Kbps
Width : 624 pixels
Height : 336 pixels
Display aspect ratio : 1.85:1
Frame rate : 23.976 fps
Color space : YUV
Chroma subsampling : 4:2:0
Bit depth : 8 bits
Scan type : Progressive
Compression mode : Lossy
Bits/(Pixel*Frame) : 0.150
Stream size : 613 MiB (82%)
Writing library : XviD 62
Audio #1
ID : 1
Format : MPEG Audio
Format version : Version 1
Format profile : Layer 3
Codec ID : 55
Codec ID/Hint : MP3
Duration : 1h 53mn
Bit rate mode : Constant
Bit rate : 160 Kbps
Channel(s) : 2 channels
Sampling rate : 48.0 KHz
Compression mode : Lossy
Stream size : 130 MiB (17%)
Alignment : Aligned on interleaves
Interleave, duration : 42 ms (1.00 video frame)
Interleave, preload duration : 504 ms
Writing library : LAME3.98r
Encoding settings : -m s -V 4 -q 2 -lowpass 17.5 -b 160

Скриншот c названием фильма

Скриншоты



Создавать темы 15-Май-2015 21:28

[Профиль]  [ЛС] 
Показать сообщения:    
Ответить на тему

Текущее время: 17-Окт 03:13

Часовой пояс: UTC + 5



Вы не можете начинать темы
Вы не можете отвечать на сообщения
Вы не можете редактировать свои сообщения
Вы не можете удалять свои сообщения
Вы не можете голосовать в опросах
Вы не можете прикреплять файлы к сообщениям
Вы не можете скачивать файлы