Без компромиссов / Raw Deal (Джон Ирвин) [1986, США, Боевик, триллер, криминал, HDRip] (MVO)

Ответить на тему
 

Decadence ®

Стаж: 4 года 11 месяцев

Сообщений: 65

Симпатии: 32

Без компромиссов / Raw Deal
Страна: США
Жанр: Боевик, триллер, криминал
Год выпуска: 1986
Продолжительность: 01:45:35
Перевод: Профессиональный (многоголосый закадровый)
Cубтитры: нет
Режиссер: Джон Ирвин
В ролях: Арнольд Шварценеггер, Кэтрин Харольд, Сэм Уонамейкер, Пол Шенар, Роберт Дави, Эд Лотер, Дэррен МакГэвин, Джо Регалбуто, Мордекай Лоунер, Стивен Хилл
Описание: Уволенный из ФБР за «чрезмерное применение силы» агент Марк Каминский работает шерифом в маленьком городке. Но когда понадобился человек, чтобы внедриться в чикагскую мафию, бывшее начальство Марка решило, что лучше него с этим заданием не справится никто.
Марку придется действовать без всякой поддержки местной полиции, ничего не знающей о его тайной миссии. Действуя в одиночку против целого гангстерского синдиката, Марк должен «взять» могущественного и жестокого главу чикагской организованной преступности.
В случае успеха Марка провозгласят героем и восстановят на службе. Не привыкший отступать перед опасностью, Марк охотно берется за дело. Он полон решимости «железной рукой» навести порядок в Чикаго…
 
Качество видео: HDRip
Формат видео: AVI
Видео: XviD, 640x272, 24.000 fps, 856 kbps
Аудио: AC3, 48.0 KHz, 2 channels, 128 kbps

MediaInfo

General
Complete name : Raw Deal.avi
Format : AVI
Format/Info : Audio Video Interleave
File size : 750 MiB
Duration : 1h 45mn
Overall bit rate : 993 Kbps
Writing application : VirtualDubMod 1.5.10.2 (build 2542/release)
Writing library : VirtualDubMod build 2542/release
Video #0
ID : 0
Format : MPEG-4 Visual
Format profile : Advanced [email protected]
Format settings, BVOP : 2
Format settings, QPel : No
Format settings, GMC : No warppoints
Format settings, Matrix : Default (H.263)
Muxing mode : Packed bitstream
Codec ID : XVID
Codec ID/Hint : XviD
Duration : 1h 45mn
Bit rate : 856 Kbps
Width : 640 pixels
Height : 272 pixels
Display aspect ratio : 2.35:1
Frame rate : 24.000 fps
Color space : YUV
Chroma subsampling : 4:2:0
Bit depth : 8 bits
Scan type : Progressive
Compression mode : Lossy
Bits/(Pixel*Frame) : 0.205
Stream size : 646 MiB (86%)
Writing library : XviD 1.2.0.dev47 (UTC 2006-11-01)
Audio #1
ID : 1
Format : AC-3
Format/Info : Audio Coding 3
Mode extension : CM (complete main)
Format settings, Endianness : Big
Codec ID : 2000
Duration : 1h 45mn
Bit rate mode : Constant
Bit rate : 128 Kbps
Channel(s) : 2 channels
Channel positions : Front: L R
Sampling rate : 48.0 KHz
Bit depth : 16 bits
Compression mode : Lossy
Stream size : 96.7 MiB (13%)
Alignment : Split accross interleaves
Interleave, duration : 42 ms (1.00 video frame)
Interleave, preload duration : 500 ms

Скриншот c названием фильма

Скриншоты



Создавать темы 15-Май-2015 21:39

[Профиль]  [ЛС] 
Показать сообщения:    
Ответить на тему

Текущее время: 22-Авг 21:47

Часовой пояс: UTC + 5



Вы не можете начинать темы
Вы не можете отвечать на сообщения
Вы не можете редактировать свои сообщения
Вы не можете удалять свои сообщения
Вы не можете голосовать в опросах
Вы не можете прикреплять файлы к сообщениям
Вы не можете скачивать файлы