Из машины / Ex Machina (Алекс Гарленд) [2015, Великобритания, фантастика, драма, HDRip] [Лицензия]

Ответить на тему
 

RecobaZico ®

Стаж: 2 года 3 месяца

Сообщений: 22

Симпатии: 94

Из машины / Ex Machina Страна: Великобритания
Жанр: фантастика, драма
Год выпуска: 2015
Продолжительность: 01:48:48-Перевод: Дублированное [лицензия]
Cубтитры: нет
Режиссер: Алекс Гарленд-В ролях: Донал Глисон, Кори Джонсон, Оскар Айзек, Алисия Викандер, Соноя Мизуно, Claire Selby, Симара А. Темплмен, Gana Bayarsaikhan, Тиффани Писани, Элина Алминас-Описание: В центре сюжета — молодой человек, которого нанимает миллиардер, сделавший состояние на высокотехнологичных разработках. Задача работника — провести неделю в удаленном местечке, тестируя женщину-робота с искусственным интеллектом.-Доп. информация:
 -Качество видео: HDRip [рип с BDRip 720p]
Формат видео: AVI-Видео: 1352 kb/s, 720x304
Аудио: AC3, 448 kb/s (6 ch)

MediaInfo

Location: D:\Рекоба2015\Ex.Mc1n0.2015.D.HDRip.1400Mb.avi
Filename: Ex.Mc1n0.2015.D.HDRip.1400Mb.avi
File format: .avi (AVI)
File size: 1.37 GB
Duration: 1h 48mn
Navigate by chapters: Nope
Bitrate (all streams): 1 810 Kbps
...with: VirtualDubMod 1.5.10.2 (build 2540/release)
...by using: VirtualDubMod build 2540/release
Title: Ex.Mc1n0.2015.D.HDRip.1400Mb
Stream type: Video
Duration: 01:48:00
Codec: MPEG-4 Visual
Codec Profile: Advanced [email protected]
Codec ID: XVID
Video Size: 720 x 304 (2.35:1)
Frame rate: 23.976 fps
Stream size: 1.02 GiB (75%)
Bitrate: 1 353 Kbps
Codec library: XviD 1.2.1 (UTC 2008-12-04)
Colorspace: YUV
Scantype: Progressive
Bitdepth: 8 bits
Stream type: Audio #1
Duration: 01:48:00.850
Codec: AC-3
Codec ID: 2000
Samplerate: 48.0 KHz
Channels: 6 channels
Bitrate: 448 Kbps
Bitrate/Mode: Constant
Stream size: 346 MiB (25%)
Bitdepth: 16 bits
Compression mode: Lossy

Скриншот c названием фильма

Скриншоты



Создавать темы 16-Май-2015 11:17

[Профиль]  [ЛС] 

iLoVeTheDiLyOrA

Стаж: 5 лет 7 месяцев

Сообщений: 68

Симпатии: 2

в конце фильма я ржал как ненормальный :D

Создавать темы 23-Май-2015 22:32

[Профиль]  [ЛС] 

ferum

Стаж: 5 лет 5 месяцев

Сообщений: 40

Симпатии: 2

Кино на 1 раз :) Спасибо за раздачу!

Создавать темы 09-Июн-2015 12:27

[Профиль]  [ЛС] 
Показать сообщения:    
Ответить на тему

Текущее время: 23-Авг 13:10

Часовой пояс: UTC + 5



Вы не можете начинать темы
Вы не можете отвечать на сообщения
Вы не можете редактировать свои сообщения
Вы не можете удалять свои сообщения
Вы не можете голосовать в опросах
Вы не можете прикреплять файлы к сообщениям
Вы не можете скачивать файлы