Дорога на Берлин (Сергей Попов) [2015, Военный, драма, DVDRip] [Лицензия]

Ответить на тему
 

RecobaZico ®

Стаж: 2 года 3 месяца

Сообщений: 22

Симпатии: 94

Дорога на Берлин Жанр: Военный, драма
Год выпуска: 2015
Продолжительность: 01:22:20
Перевод: Оригинал [Лицензия]-Режиссёр: Сергей Попов-В ролях: Юрий Борисов, Амир Абдыкалыков, Мария Карпова, Максим Демченко, Александр Новик, Артем Лебедев, Андрей Дерюгин.-Описание: Действие фильма происходит в Великую Отечественную войну. Главные герои - лейтенант Огарков и рядовой Джурабаев - молодые люди, выходцы из разных союзных республик, разные по характеру и жизненным позициям, но объединенные общей целью. В основе фильма лежат их сложные отношения и поступки, продиктованные фоном страшных событий войны. Это история о человеческих взаимоотношениях, истинных нравственных ценностях, долге перед Родиной, близкими и самим собой.-Доп. информация:
 -Качество видео: DVDRip
Формат видео: AVI-Видео: 720x384 (1.85:1), 25.000 fps, XviD ~ 1922 kbps avg, 0.278 bit/pixel
Аудио: 48 kHz, AC3 Dolby Digital, 3/2 (L,C,R,l,r) + LFE ch, ~448.00 kbps

MediaInfo

Location: D:\Рекоба2015\Doroga.na.Berlin.2015.O.DVDRip.1400MB.avi
Filename: Doroga.na.Berlin.2015.O.DVDRip.1400MB.avi
File format: .avi (AVI)
File size: 1.37 GB
Duration: 1h 22mn
Navigate by chapters: Nope
Bitrate (all streams): 2 379 Kbps
...with: VirtualDubMod 1.5.10.3 | www.virtualdub-fr.org || (build 2550/release)
...by using: VirtualDubMod build 2550/release
Title: Doroga.na.Berlin.2015.O.DVDRip.1400MB
Stream type: Video
Duration: 01:22:20
Codec: MPEG-4 Visual
Codec Profile: Advanced [email protected]
Codec ID: XVID
Video Size: 720 x 384 (1.85:1)
Frame rate: 25.000 fps
Stream size: 1.11 GiB (81%)
Bitrate: 1 922 Kbps
Codec library: XviD 65
Colorspace: YUV
Scantype: Progressive
Bitdepth: 8 bits
Stream type: Audio #1
Duration: 01:22:18.048
Codec: AC-3
Codec ID: 2000
Samplerate: 48.0 KHz
Channels: 6 channels
Bitrate: 448 Kbps
Bitrate/Mode: Constant
Stream size: 264 MiB (19%)
Bitdepth: 16 bits
Compression mode: Lossy

Скриншот c названием фильма

Скриншоты



Создавать темы 16-Май-2015 11:42

[Профиль]  [ЛС] 

Shera_best

Стаж: 3 года 8 месяцев

Сообщений: 40

Симпатии: 12

Уважаемые, дайте скорости

Создавать темы 23-Май-2015 07:12

[Профиль]  [ЛС] 
Показать сообщения:    
Ответить на тему

Текущее время: 20-Авг 14:57

Часовой пояс: UTC + 5



Вы не можете начинать темы
Вы не можете отвечать на сообщения
Вы не можете редактировать свои сообщения
Вы не можете удалять свои сообщения
Вы не можете голосовать в опросах
Вы не можете прикреплять файлы к сообщениям
Вы не можете скачивать файлы