Реверс / Backmask (Маркус Ниспел) [2015, США, ужасы, триллер, WEB-DLRip] (VO : [datynet])

Ответить на тему
 

mp1988 ®

Стаж: 6 лет 7 месяцев

Сообщений: 607

Симпатии: 971

Реверс / Backmask
Страна: США
Жанр: ужасы, триллер
Год выпуска: 2015
Продолжительность: 01:31:38
Перевод: Студийный (одноголосый закадровый) [datynet]
Cубтитры: нет
Режиссер: Маркус Ниспел
В ролях: Стивен Лэнг, Бретт Дир, Бриттани Каррен, Гейдж Голайтли, Кевин Чэпмен, Келли Блац, Мередит Прунти, Дженнифер Сайпс, Эшли Трамонте, Джаррет ЛеМастер
Описание: Группа подростков во время пьяной вечеринки находят старую аудиозапись и ради прикола решают проиграть ее в обратном порядке, тем самым они случайно выпускает на волю злого духа, который начинает вселяться в них по одному…
Качество видео: WEB-DLRip
Формат видео: AVI
Видео: XviD 1743 kb/s, 720x400
Аудио: AC3, 384 kb/s (6 ch)

MediaInfo

Общее
Полное имя : D:\FILM\Backmask.2015.L1.WEB-DLRip.1400MB.avi
Формат : AVI
Формат/Информация : Audio Video Interleave
Размер файла : 1,37 Гбайт
Продолжительность : 1 ч. 31 м.
Общий поток : 2136 Кбит/сек
Программа кодирования : VirtualDubMod 1.5.10.3 | www.virtualdub-fr.org || (build 2550/release)
Библиотека кодирования : VirtualDubMod build 2550/release
Видео
Идентификатор : 0
Формат : MPEG-4 Visual
Профиль формата : Advanced [email protected]
Параметр BVOP формата : 1
Параметр QPel формата : Нет
Параметр GMC формата : Без точки перехода
Параметр матрицы формата : Выборочная
Идентификатор кодека : XVID
Идентификатор кодека/Подсказка : XviD
Продолжительность : 1 ч. 31 м.
Битрейт : 1743 Кбит/сек
Ширина : 720 пикселей
Высота : 400 пикселей
Соотношение сторон : 16:9
Частота кадров : 23,976 кадра/сек
Цветовое пространство : YUV
Субдискретизация насыщенности : 4:2:0
Битовая глубина : 8 бит
Тип развёртки : Прогрессивная
Метод сжатия : С потерями
Бит/(Пиксели*Кадры) : 0.252
Размер потока : 1,12 Гбайт (82%)
Библиотека кодирования : XviD 73
Аудио
Идентификатор : 1
Формат : AC-3
Формат/Информация : Audio Coding 3
Расширение режима : CM (complete main)
Параметр Endianness формата : Big
Идентификатор кодека : 2000
Продолжительность : 1 ч. 31 м.
Вид битрейта : Постоянный
Битрейт : 384 Кбит/сек
Каналы : 6 каналов
Расположение каналов : Front: L C R, Side: L R, LFE
Частота : 48,0 КГц
Битовая глубина : 16 бит
Метод сжатия : С потерями
Задержка видео : 31 мс.
Размер потока : 252 Мбайт (18%)
Выравнивание : Разделение по промежуткам
Продолжительность промежутка : 42 мс. (1,00 видеокадр)
Время предзагрузки промежутка : 500 мс.

Скриншоты



Создавать темы 16-Май-2015 22:51

[Профиль]  [ЛС] 

madd

Стаж: 6 лет 5 месяцев

Сообщений: 25

Симпатии: 13

стоит посмотреть?

Создавать темы 17-Май-2015 06:01

[Профиль]  [ЛС] 

mp1988 ®

Стаж: 6 лет 7 месяцев

Сообщений: 607

Симпатии: 971

936499стоит посмотреть?
нет

Создавать темы 17-Май-2015 08:13

[Профиль]  [ЛС] 

aziz_hack

Стаж: 6 лет 10 месяцев

Сообщений: 14

Симпатии: 6

madd писал(а):
стоит посмотреть?
нет
:))

Создавать темы 17-Май-2015 09:59

[Профиль]  [ЛС] 

-OdilmaX-

Стаж: 2 года 6 месяцев

Сообщений: 425

Симпатии: 854

936504
936499стоит посмотреть?
нет
ag ag

Создавать темы 17-Май-2015 12:52

[Профиль]  [ЛС] 

-OdilmaX-

Стаж: 2 года 6 месяцев

Сообщений: 425

Симпатии: 854

Рекомендую посмотреть: Sinister 1/2 и Ring1/2/3 и Astral - и конечно же ночевать дома один!

Создавать темы 17-Май-2015 12:54

[Профиль]  [ЛС] 

vincent47

Стаж: 6 лет 7 месяцев

Сообщений: 89

Симпатии: 19

"находят старую аудиозапись и ради прикола решают проиграть ее в обратном порядке, тем самым они случайно выпускает на волю злого духа"
я один вижу сюжет старого доброго ужастика ? Точно !! Зловещие мертвецы!

Создавать темы 20-Май-2015 00:02

[Профиль]  [ЛС] 

React

Стаж: 5 лет 7 месяцев

Сообщений: 25

Симпатии: 4

936972"находят старую аудиозапись и ради прикола решают проиграть ее в обратном порядке, тем самым они случайно выпускает на волю злого духа"
я один вижу сюжет старого доброго ужастика ? Точно !! Зловещие мертвецы!
Похоже ag

Создавать темы 20-Май-2015 18:00

[Профиль]  [ЛС] 

React

Стаж: 5 лет 7 месяцев

Сообщений: 25

Симпатии: 4

936548Рекомендую посмотреть: Sinister 1/2 и Ring1/2/3 и Astral - и конечно же ночевать дома один!
al Синистер .. странно, как то не пришлось смотреть

Создавать темы 20-Май-2015 18:03

[Профиль]  [ЛС] 

React

Стаж: 5 лет 7 месяцев

Сообщений: 25

Симпатии: 4

К стате, постер напоминает один из комнат silent hill - alchimella.

Создавать темы 21-Май-2015 13:33

[Профиль]  [ЛС] 
Показать сообщения:    
Ответить на тему

Текущее время: 25-Сен 05:58

Часовой пояс: UTC + 5



Вы не можете начинать темы
Вы не можете отвечать на сообщения
Вы не можете редактировать свои сообщения
Вы не можете удалять свои сообщения
Вы не можете голосовать в опросах
Вы не можете прикреплять файлы к сообщениям
Вы не можете скачивать файлы