Факап, или Хуже не бывает / Nicht mein Tag (Петер Торварт) [2014, Германия, боевик, комедия, криминал, приключения, ..., HDRip]

Ответить на тему
 

Каротажник ®

Стаж: 3 года 10 месяцев

Сообщений: 195

Симпатии: 211

Факап, или Хуже не бывает / Nicht mein Tag Страна: Германия
Жанр: боевик, комедия, криминал, приключения, ...
Год выпуска: 2014--Продолжительность: 01:50:17
Перевод:Дублированное [звук с TS]--Режиссер: Петер Торварт
В ролях: Мориц Бляйбтрой, Аксель Штайн, Жасмин Герат, Анна Мария Мюэ, Неля Кипер, Бен Рюдингер, Касэм Ходжа, Беким Гури, Тобиас Нид, Максвелл Рихтер--Описание: Тиль Райнер — банковский клерк 30-ти лет. Каждый новый день его жизни похож на предыдущий. Отношения с супругой больше напоминают привычку. Но неожиданно происходит то, что позволяет выбраться ему из повседневной рутины. Тиля захватывает в заложники грабитель банка, в котором наш герой узнает заявителя по кредиту — Наппо.--Полиция разрабатывает план перехват, устанавливает блокпосты, поэтому Наппо решает спрятать заложника в багажник и исчезнуть с награбленным! Но все идет не по плану и Наппо скрывается вместе с Тиллем! После того как шок от случившегося немного проходит, Тиль забывает про какое-либо благоразумие и погружается с головой в приключения вместе со своим похитителем…-- 
--Качество видео: HDRip
Формат видео: AVI--Видео: Xvid 720x304 25fps 1626kbps
Аудио: AC3 48000Hz stereo 256kbps

MediaInfo

Format : AVI
Format/Info : Audio Video Interleave
File size : 1.46 GiB
Duration : 1h 50mn
Overall bit rate : 1 892 Kbps
Movie name : FuckUp.2014.D.HDRip.ELEKTRI4KA.uniongang.tv
Writing application : VirtualDubMod 1.5.10.3 | www.virtualdub-fr.org || (build 2550/release)
Copyright : UNIONGANG&RUSTORRENTS
Video
ID : 0
Format : MPEG-4 Visual
Format profile : Advanced [email protected]
Format settings, BVOP : Yes
Format settings, QPel : No
Format settings, GMC : No warppoints
Format settings, Matrix : Default (MPEG)
Codec ID : XVID
Codec ID/Hint : XviD
Duration : 1h 50mn
Bit rate : 1 626 Kbps
Width : 720 pixels
Height : 304 pixels
Display aspect ratio : 2.35:1
Frame rate : 25.000 fps
Color space : YUV
Chroma subsampling : 4:2:0
Bit depth : 8 bits
Scan type : Progressive
Compression mode : Lossy
Bits/(Pixel*Frame) : 0.297
Stream size : 1.25 GiB (86%)
Writing library : XviD 73
Audio
ID : 1
Format : AC-3
Format/Info : Audio Coding 3
Mode extension : CM (complete main)
Format settings, Endianness : Big
Codec ID : 2000
Duration : 1h 50mn
Bit rate mode : Constant
Bit rate : 256 Kbps
Channel(s) : 2 channels
Channel positions : Front: L R
Sampling rate : 48.0 KHz
Bit depth : 16 bits
Compression mode : Lossy
Stream size : 202 MiB (14%)
Alignment : Split accross interleaves
Interleave, duration : 40 ms (1.00 video frame)
Interleave, preload duration : 500 ms

Скриншоты


Создавать темы 17-Май-2015 05:56

[Профиль]  [ЛС] 
Показать сообщения:    
Ответить на тему

Текущее время: 19-Авг 01:19

Часовой пояс: UTC + 5



Вы не можете начинать темы
Вы не можете отвечать на сообщения
Вы не можете редактировать свои сообщения
Вы не можете удалять свои сообщения
Вы не можете голосовать в опросах
Вы не можете прикреплять файлы к сообщениям
Вы не можете скачивать файлы