Лофт / The Loft (Эрик Ван Лой) [2014, Бельгия, США, Триллер, HDRip] [Лицензия]

Ответить на тему
 

mp1988 ®

Стаж: 6 лет 6 месяцев

Сообщений: 607

Симпатии: 971

Лофт / The Loft
Страна: Бельгия, США
Жанр: Триллер
Год выпуска: 2014
Продолжительность: 01:43:00
Перевод: Профессиональный (дублированный) [Лицензия]
Cубтитры: нет
Режиссер: Эрик Ван Лой
В ролях: Карл Урбан, Джеймс Марсден, Вентворт Миллер, Эрик Стоунстрит, Маттиас Шонартс, Изабель Лукас, Рэйчел Тейлор, Рона Митра, Валери Крус, Кали Роша, Элейн Кэссиди, Маргарита Левиева, Кристин Леман, Роберт Уиздом, Рик Райц, Грэм Беккел, Кэти Дейч, Дора Мэдисон Бёрдж, Синди Вудс, Лора Кайюэтт
Описание: В центре событий – пятеро старых друзей. Все они взрослые, женатые мужчины. Чтобы разнообразить свою обыденную семейную жизнь они решаю вместе снять комфортабельный лофт, чтобы периодически изменять здесь своим женам. Их план удался, и они поочередно встречаются в лофте со своими любовницами. Однако судьба подкидывает им неприятный сюрприз. Однажды утром все пятеро друзей обнаруживают в своем «убежище» труп неизвестной молодой женщины. Поскольку следов взлома на двери не обнаружено, а ключи от помещения есть только у пятерых мужчин, то у каждого из них возникают вопросы к друг другу.-- --Качество видео: HDRip
Формат видео: AVI
Видео: XviD 1443 Кбит/с, 720x304
Аудио: AC3, 6 ch, 448 Кбит/с

MediaInfo

бщее
Полное имя : D:\FILM\L0ft.2014.D.HDRip.1400MB.avi
Формат : AVI
Формат/Информация : Audio Video Interleave
Размер файла : 1,37 Гбайт
Продолжительность : 1 ч. 42 м.
Общий поток : 1900 Кбит/сек
Программа кодирования : VirtualDubMod 1.5.10.2 (build 2540/release)
Библиотека кодирования : VirtualDubMod build 2540/release
Видео
Идентификатор : 0
Формат : MPEG-4 Visual
Профиль формата : Advanced [email protected]
Параметр BVOP формата : 2
Параметр QPel формата : Нет
Параметр GMC формата : Без точки перехода
Параметр матрицы формата : Default (MPEG)
Идентификатор кодека : XVID
Идентификатор кодека/Подсказка : XviD
Продолжительность : 1 ч. 42 м.
Битрейт : 1443 Кбит/сек
Ширина : 720 пикселей
Высота : 304 пикселя
Соотношение сторон : 2,35:1
Частота кадров : 23,976 кадра/сек
Цветовое пространство : YUV
Субдискретизация насыщенности : 4:2:0
Битовая глубина : 8 бит
Тип развёртки : Прогрессивная
Метод сжатия : С потерями
Бит/(Пиксели*Кадры) : 0.275
Размер потока : 1,04 Гбайт (76%)
Библиотека кодирования : XviD 1.2.1 (UTC 2008-12-04)
Аудио
Идентификатор : 1
Формат : AC-3
Формат/Информация : Audio Coding 3
Расширение режима : CM (complete main)
Параметр Endianness формата : Big
Идентификатор кодека : 2000
Продолжительность : 1 ч. 42 м.
Вид битрейта : Постоянный
Битрейт : 448 Кбит/сек
Каналы : 6 каналов
Расположение каналов : Front: L C R, Side: L R, LFE
Частота : 48,0 КГц
Битовая глубина : 16 бит
Метод сжатия : С потерями
Размер потока : 330 Мбайт (24%)
Выравнивание : Разделение по промежуткам
Продолжительность промежутка : 42 мс. (1,00 видеокадр)
Время предзагрузки промежутка : 500 мс.

Скриншоты



Создавать темы 17-Май-2015 08:51

[Профиль]  [ЛС] 

[email protected]

Стаж: 6 лет 3 месяца

Сообщений: 139

Симпатии: 29

Вентворт Миллер +РЕСПЕКТ

Создавать темы 21-Май-2015 21:12

[Профиль]  [ЛС] 

[email protected]

Стаж: 6 лет 3 месяца

Сообщений: 139

Симпатии: 29

Филм просто суппер....

Создавать темы 23-Май-2015 23:42

[Профиль]  [ЛС] 
Показать сообщения:    
Ответить на тему

Текущее время: 19-Авг 23:39

Часовой пояс: UTC + 5



Вы не можете начинать темы
Вы не можете отвечать на сообщения
Вы не можете редактировать свои сообщения
Вы не можете удалять свои сообщения
Вы не можете голосовать в опросах
Вы не можете прикреплять файлы к сообщениям
Вы не можете скачивать файлы