Кабинет / Parlor (Девон Даунс) [2015, США, ужасы, WEB-DLRip] L2 (Original Eng)

Ответить на тему
 

mp1988 ®

Стаж: 6 лет 9 месяцев

Сообщений: 607

Симпатии: 971

Кабинет / Parlor
Страна: США
Жанр: ужасы
Год выпуска: 2015
Продолжительность: 01:38:46
Перевод: Любительский (двухголосый закадровый) [den904 & DeadSno]
Cубтитры: нет
Оригинальная аудиодорожка: английский
Режиссер: Девон Даунс
В ролях: Роберт ЛаСардо, Джордан Джеймс Смит, Сара Фабел, Энтони Дель Негро, Клер Гарви, Тиффани ДеМарко, Джои Фишер, Бен Уэйлен, Бет Хамфрис, Ник Голдман
Описание: Шестеро студентов колледжа отправляются на каникулы в Восточную Европу, но в погоне за весельем они попадают прямиком в лапы татуировщика-садиста, для которого наколки далеко не единственный источник доходов.
Качество видео: WEB-DLRip
Формат видео: AVI
Видео: XviD 1595 kb/s, 720x304
Аудио: AC3, 192 kb/s (2 ch) Russian
Аудио 2: AC3, 192 kb/s (2 ch) / English

MediaInfo

Общее
Полное имя : D:\FILM\Kabinet.WEBDLRip.1400mb.avi
Формат : AVI
Формат/Информация : Audio Video Interleave
Размер файла : 1,37 Гбайт
Продолжительность : 1 ч. 38 м.
Общий поток : 1993 Кбит/сек
Программа кодирования : VirtualDubModRus 1.5.10.2 (build 2542/release)
Библиотека кодирования : VirtualDubMod build 2542/release
Видео
Идентификатор : 0
Формат : MPEG-4 Visual
Профиль формата : Advanced [email protected]
Параметр BVOP формата : 2
Параметр QPel формата : Нет
Параметр GMC формата : Без точки перехода
Параметр матрицы формата : Default (H.263)
Режим смешивания : Сжатый битовый поток
Идентификатор кодека : XVID
Идентификатор кодека/Подсказка : XviD
Продолжительность : 1 ч. 38 м.
Битрейт : 1595 Кбит/сек
Ширина : 720 пикселей
Высота : 304 пикселя
Соотношение сторон : 2,35:1
Частота кадров : 23,976 кадра/сек
Цветовое пространство : YUV
Субдискретизация насыщенности : 4:2:0
Битовая глубина : 8 бит
Тип развёртки : Прогрессивная
Метод сжатия : С потерями
Бит/(Пиксели*Кадры) : 0.304
Размер потока : 1,10 Гбайт (80%)
Библиотека кодирования : XviD 66
Аудио #1
Идентификатор : 1
Формат : AC-3
Формат/Информация : Audio Coding 3
Расширение режима : CM (complete main)
Параметр Endianness формата : Big
Идентификатор кодека : 2000
Продолжительность : 1 ч. 38 м.
Вид битрейта : Постоянный
Битрейт : 192 Кбит/сек
Каналы : 2 канала
Расположение каналов : Front: L R
Частота : 48,0 КГц
Битовая глубина : 16 бит
Метод сжатия : С потерями
Размер потока : 136 Мбайт (10%)
Выравнивание : Разделение по промежуткам
Продолжительность промежутка : 42 мс. (1,00 видеокадр)
Время предзагрузки промежутка : 500 мс.
Аудио #2
Идентификатор : 2
Формат : AC-3
Формат/Информация : Audio Coding 3
Расширение режима : CM (complete main)
Параметр Endianness формата : Big
Идентификатор кодека : 2000
Продолжительность : 1 ч. 38 м.
Вид битрейта : Постоянный
Битрейт : 192 Кбит/сек
Каналы : 2 канала
Расположение каналов : Front: L R
Частота : 48,0 КГц
Битовая глубина : 16 бит
Метод сжатия : С потерями
Размер потока : 136 Мбайт (10%)
Выравнивание : Разделение по промежуткам
Продолжительность промежутка : 42 мс. (1,00 видеокадр)
Время предзагрузки промежутка : 500 мс.

Скриншоты



Создавать темы 17-Май-2015 09:35

[Профиль]  [ЛС] 

-OdilmaX-

Стаж: 2 года 8 месяцев

Сообщений: 425

Симпатии: 854

Фильм так себе, но страшиики на уровне ... спс автору!

Создавать темы 17-Май-2015 12:51

[Профиль]  [ЛС] 

-OdilmaX-

Стаж: 2 года 8 месяцев

Сообщений: 425

Симпатии: 854

Рекомендую посмотреть: Sinister 1/2 и Ring1/2/3 и Astral - и конечно же ночевать дома один! xD:D

Создавать темы 17-Май-2015 12:54

[Профиль]  [ЛС] 
Показать сообщения:    
Ответить на тему

Текущее время: 21-Ноя 16:42

Часовой пояс: UTC + 5



Вы не можете начинать темы
Вы не можете отвечать на сообщения
Вы не можете редактировать свои сообщения
Вы не можете удалять свои сообщения
Вы не можете голосовать в опросах
Вы не можете прикреплять файлы к сообщениям
Вы не можете скачивать файлы