Драгонболл: Фильм первый / Dragon Ball: Shen Long no Densetsu (Нисио Дайсукэ) [Movie] [Без хардсаба] [RUS(int),JAP+SUB] [1986г., приключения, комедия, фэнтези DVDRip]

Ответить на тему
 

SoluSoull ®

Стаж: 2 года 5 месяцев

Сообщений: 379

Симпатии: 452

Dragon Ball: Shen Long no Densetsu
Драгонболл: Фильм первый-Производство: Япония
Год выпуска: 1986
Жанр: приключения, комедия, фэнтези
Тип: короткометражный фильм, 50 мин.-Перевод:
Озвучка от Shoker, Allestra & GreyMoon
Субтитры от Mxslive-Режиссёр: Нисио Дайсукэ
Автор оригинала: Торияма Акира
Студия: TOEI ANIMATION-Описание: В этом фильме Гоку с друзьями спасают королевство от его короля, который превратился в жадного монстра,из-за страсти к сбору кровавых рубинов.-Качество: DVDRip \ Формат: MKV
Тип видео: без хардсаба
Видео: H.264, 848 x 480, 1 533 Kbps, 23.976 fps
Аудио RUS: AC3, 192 Kbps, 48000 Hz, 2 ch
Аудио JAP: AC3, 384 Kbps, 48000 Hz, 2 ch-

Скриншоты

MI

General
Unique ID : 198553952031103990971920839483911148192 (0x956019A559F9129D857DE25473B992A0)
Complete name : F:\[RAZNEW]\Dragon Ball\сезон 1\Movie\Dragon Ball - Movie 1 - Shen Long no Densetsu.mkv
Format : Matroska
Format version : Version 2
File size : 759 MiB
Duration : 50mn 15s
Overall bit rate : 2 112 Kbps
Encoded date : UTC 2012-08-29 11:19:11
Writing application : mkvmerge v3.3.0 ('Language') built on Mar 24 2010 14:59:24
Writing library : libebml v0.8.0 + libmatroska v0.9.0
Video
ID : 1
Format : AVC
Format/Info : Advanced Video Codec
Format profile : [email protected]
Format settings, CABAC : Yes
Format settings, ReFrames : 16 frames
Codec ID : V_MPEG4/ISO/AVC
Duration : 50mn 15s
Bit rate : 1 533 Kbps
Width : 848 pixels
Height : 480 pixels
Display aspect ratio : 16:9
Original display aspect rat : 16:9
Frame rate mode : Constant
Frame rate : 23.976 fps
Color space : YUV
Chroma subsampling : 4:2:0
Bit depth : 8 bits
Scan type : Progressive
Bits/(Pixel*Frame) : 0.157
Stream size : 537 MiB (71%)
Writing library : x264 core 57 svn-709C
Encoding settings : cabac=1 / ref=16 / deblock=0:0:0 / analyse=0x3:0x113 / me=umh / fpel_cmp=sad / subme=7 / me-prepass=0 / brdo=1 / mixed_ref=1 / me_range=16 / chroma_me=1 / trellis=2 / 8x8dct=1 / cqm=0 / deadzone=21,11 / chroma_qp_offset=0 / threads=6 / nr=0 / decimate=0 / mbaff=0 / bframes=16 / b_pyramid=1 / b_adapt=1 / b_bias=0 / direct=3 / wpredb=1 / bime=1 / keyint=250 / keyint_min=25 / scenecut=40(pre) / rc=2pass / bitrate=1533 / ratetol=1.0 / rceq='blurCplx^(1-qComp)' / qcomp=0.60 / qpmin=10 / qpmax=51 / qpstep=4 / cplxblur=20.0 / qblur=0.5 / ip_ratio=1.40 / pb_ratio=1.30
Default : Yes
Forced : No
Audio #1
ID : 2
Format : AC-3
Format/Info : Audio Coding 3
Mode extension : CM (complete main)
Format settings, Endianness : Big
Codec ID : A_AC3
Duration : 50mn 15s
Bit rate mode : Constant
Bit rate : 192 Kbps
Channel(s) : 2 channels
Channel positions : Front: L R
Sampling rate : 48.0 KHz
Bit depth : 16 bits
Compression mode : Lossy
Stream size : 69.0 MiB (9%)
Title : Rus
Language : Russian
Default : Yes
Forced : No
Audio #2
ID : 3
Format : AC-3
Format/Info : Audio Coding 3
Mode extension : CM (complete main)
Format settings, Endianness : Big
Codec ID : A_AC3
Duration : 50mn 15s
Bit rate mode : Constant
Bit rate : 384 Kbps
Channel(s) : 2 channels
Channel positions : Front: L R
Sampling rate : 48.0 KHz
Bit depth : 16 bits
Compression mode : Lossy
Stream size : 138 MiB (18%)
Title : Original
Language : Japanese
Default : No
Forced : No
Text
ID : 4
Format : ASS
Codec ID : S_TEXT/ASS
Codec ID/Info : Advanced Sub Station Alpha
Compression mode : Lossless
Title : Subs
Language : Russian
Default : No
Forced : No

Создавать темы 17-Май-2015 10:20

[Профиль]  [ЛС] 
Показать сообщения:    
Ответить на тему

Текущее время: 19-Авг 00:56

Часовой пояс: UTC + 5



Вы не можете начинать темы
Вы не можете отвечать на сообщения
Вы не можете редактировать свои сообщения
Вы не можете удалять свои сообщения
Вы не можете голосовать в опросах
Вы не можете прикреплять файлы к сообщениям
Вы не можете скачивать файлы