Драгонболл: Фильм второй / Dragon Ball: Sleeping Princess in Devil's Castle (Нисио Дайсукэ) [Movie] [Без хардсаба] [RUS(int),JAP] [1987г., приключения, комедия, фэнтези DVDRip]

Ответить на тему
 

SoluSoull ®

Стаж: 2 года 6 месяцев

Сообщений: 379

Симпатии: 452

Dragon Ball: Sleeping Princess in Devil's Castle
Драгонболл: Фильм второй-Производство: Япония
Год выпуска: 1987
Жанр: приключения, комедия, фэнтези
Тип: короткометражный фильм, 45 мин.-Перевод:
Озвучка от Shoker, Allestra & GreyMoon-Режиссёр: Нисио Дайсукэ
Автор оригинала: Торияма Акира
Студия: TOEI ANIMATION-Описание: Далеко-далеко на западе находится Дьявольский Замок, в котором уже многие тысячи лет спит беспробудным сном Спящая Принцесса...
Гоку и Куририн решили податься в ученики к учителю Мутен Роши. Но так ли легко это сделать? Прежде, им предстоит выполнить одно задание: привезти учителю Спящую Принцессу, согласно легендам, являющуюся девушкой неземной красоты. Кто же из двоих соискателей станет учеником, и получит ли Черепаший Отшельник вожделенную красотку?..-Качество: DVDRip \ Формат: MKV
Тип видео: без хардсаба
Видео: H.264, 720x480, 2560 kbps, 23.976 fps
Аудио RUS: AC3, 192 kbps, 48000 Hz, 2 ch
Аудио JAP: AC3, 284 kbps, 48000 Hz, 2ch-

Скриншоты

MI

General
Unique ID : 181861841111133417684664223512984249507 (0x88D15109AA58BB4995E452726DB364A3)
Complete name : F:\[RAZNEW]\Dragon Ball\сезон 1\Movie\Dragon Ball - Movie 2 - Sleeping Princess in Devil's Castle.mkv
Format : Matroska
Format version : Version 2
File size : 1.00 GiB
Duration : 44mn 49s
Overall bit rate : 3 200 Kbps
Encoded date : UTC 2012-09-12 13:24:21
Writing application : mkvmerge v3.3.0 ('Language') built on Mar 24 2010 14:59:24
Writing library : libebml v0.8.0 + libmatroska v0.9.0
Video
ID : 1
Format : AVC
Format/Info : Advanced Video Codec
Format profile : [email protected]
Format settings, CABAC : Yes
Format settings, ReFrames : 4 frames
Codec ID : V_MPEG4/ISO/AVC
Duration : 44mn 49s
Bit rate : 2 560 Kbps
Width : 720 pixels
Height : 480 pixels
Display aspect ratio : 16:9
Frame rate mode : Constant
Frame rate : 23.976 fps
Standard : NTSC
Color space : YUV
Chroma subsampling : 4:2:0
Bit depth : 8 bits
Scan type : Progressive
Bits/(Pixel*Frame) : 0.309
Stream size : 821 MiB (80%)
Writing library : x264 core 116 r2074 2641b9e
Encoding settings : cabac=1 / ref=4 / deblock=1:-1:-1 / analyse=0x3:0x113 / me=umh / subme=9 / psy=1 / psy_rd=1.00:0.00 / mixed_ref=1 / me_range=24 / chroma_me=1 / trellis=2 / 8x8dct=1 / cqm=0 / deadzone=21,11 / fast_pskip=0 / chroma_qp_offset=-2 / threads=3 / sliced_threads=0 / nr=0 / decimate=1 / interlaced=0 / bluray_compat=0 / constrained_intra=0 / bframes=3 / b_pyramid=0 / b_adapt=2 / b_bias=0 / direct=3 / weightb=1 / open_gop=0 / weightp=2 / keyint=250 / keyint_min=23 / scenecut=40 / intra_refresh=0 / rc_lookahead=40 / rc=crf / mbtree=1 / crf=18.0 / qcomp=0.70 / qpmin=10 / qpmax=51 / qpstep=4 / vbv_maxrate=50000 / vbv_bufsize=50000 / crf_max=0.0 / nal_hrd=none / ip_ratio=1.40 / aq=1:0.90
Language : Japanese
Default : Yes
Forced : No
Audio #1
ID : 2
Format : AC-3
Format/Info : Audio Coding 3
Mode extension : CM (complete main)
Format settings, Endianness : Big
Codec ID : A_AC3
Duration : 44mn 49s
Bit rate mode : Constant
Bit rate : 192 Kbps
Channel(s) : 2 channels
Channel positions : Front: L R
Sampling rate : 48.0 KHz
Bit depth : 16 bits
Compression mode : Lossy
Stream size : 61.6 MiB (6%)
Title : RUS
Language : Russian
Default : Yes
Forced : No
Audio #2
ID : 3
Format : AC-3
Format/Info : Audio Coding 3
Mode extension : CM (complete main)
Format settings, Endianness : Big
Codec ID : A_AC3
Duration : 44mn 49s
Bit rate mode : Constant
Bit rate : 384 Kbps
Channel(s) : 2 channels
Channel positions : Front: L R
Sampling rate : 48.0 KHz
Bit depth : 16 bits
Compression mode : Lossy
Stream size : 123 MiB (12%)
Title : JAP
Language : Japanese
Default : No
Forced : No

Создавать темы 17-Май-2015 10:27

[Профиль]  [ЛС] 
Показать сообщения:    
Ответить на тему

Текущее время: 25-Сен 00:28

Часовой пояс: UTC + 5



Вы не можете начинать темы
Вы не можете отвечать на сообщения
Вы не можете редактировать свои сообщения
Вы не можете удалять свои сообщения
Вы не можете голосовать в опросах
Вы не можете прикреплять файлы к сообщениям
Вы не можете скачивать файлы