Драгонболл: Фильм третий / Dragon Ball: Mystical Adventure (Такэноти Кадзухиса) [Movie] [Без хардсаба] [RUS(int),JAP] [1988г., приключения, комедия, фэнтези DVDRip]

Ответить на тему
 

SoluSoull ®

Стаж: 2 года 8 месяцев

Сообщений: 379

Симпатии: 452

Dragon Ball: Mystical Adventure
Драгонболл: Фильм третий-Производство: Япония
Год выпуска: 1988
Жанр: приключения, комедия, фэнтези
Тип: короткометражный фильм, 46 мин.-Перевод:
Озвучка от Animegroup-Режиссёр: Такэноти Кадзухиса
Автор оригинала: Торияма Акира
Студия: TOEI ANIMATION-Описание: В третьем фильме рассказывается о Теншинхане и Чаоцу в битве против Тао-пай-пая.Здесь Чаоцу - принц, Теншинхан - его телохранитель. И вот, повелителю Журавлей и Тао-Пай-паю вздумалось захватить власть в королевстве.-Качество: DVDRip \ Формат: MKV
Тип видео: без хардсаба
Видео: AVC, 656x480 (4:3), 1300 кбит/с, 23,976 fps
Аудио RUS: AC3, 2/0 (L,R) ch, 192 kbps, 48 kHz
Аудио JAP: AC3, 2/0 (L,R) ch, 192 kbps, 48 kHz-

Скриншоты

MI

General
Unique ID : 221345462000407678822910396168485742671 (0xA68595D852C2225BB1F86B397150284F)
Complete name : F:\[RAZNEW]\Dragon Ball\сезон 1\Movie\Dragon Ball - Movie 3 - Mystical Adventure.mkv
Format : Matroska
Format version : Version 2
File size : 616 MiB
Duration : 46mn 0s
Overall bit rate : 1 871 Kbps
Encoded date : UTC 2012-03-21 14:19:21
Writing application : mkvmerge v5.2.1 ('A Far Off Place') built on Jan 2 2012 23:21:10
Writing library : libebml v1.2.3 + libmatroska v1.3.0
Video
ID : 1
Format : AVC
Format/Info : Advanced Video Codec
Format profile : [email protected]
Format settings, CABAC : Yes
Format settings, ReFrames : 10 frames
Muxing mode : Header stripping
Codec ID : V_MPEG4/ISO/AVC
Duration : 46mn 0s
Bit rate : 1 300 Kbps
Width : 656 pixels
Height : 480 pixels
Display aspect ratio : 4:3
Frame rate mode : Constant
Frame rate : 23.976 fps
Color space : YUV
Chroma subsampling : 4:2:0
Bit depth : 8 bits
Scan type : Progressive
Bits/(Pixel*Frame) : 0.172
Stream size : 414 MiB (67%)
Writing library : x264 core 120 r2164 da19765
Encoding settings : cabac=1 / ref=10 / deblock=1:1:1 / analyse=0x3:0x113 / me=umh / subme=8 / psy=1 / psy_rd=0.40:0.00 / mixed_ref=1 / me_range=16 / chroma_me=1 / trellis=1 / 8x8dct=1 / cqm=0 / deadzone=21,11 / fast_pskip=1 / chroma_qp_offset=-2 / threads=6 / sliced_threads=0 / nr=0 / decimate=1 / interlaced=0 / bluray_compat=0 / constrained_intra=0 / bframes=5 / b_pyramid=2 / b_adapt=2 / b_bias=0 / direct=3 / weightb=1 / open_gop=0 / weightp=2 / keyint=240 / keyint_min=23 / scenecut=40 / intra_refresh=0 / rc_lookahead=50 / rc=2pass / mbtree=1 / bitrate=1300 / ratetol=1.0 / qcomp=0.60 / qpmin=0 / qpmax=69 / qpstep=4 / cplxblur=20.0 / qblur=0.5 / ip_ratio=1.40 / aq=1:0.60
Language : English
Default : Yes
Forced : No
Audio #1
ID : 2
Format : AC-3
Format/Info : Audio Coding 3
Mode extension : CM (complete main)
Format settings, Endianness : Big
Muxing mode : Header stripping
Codec ID : A_AC3
Duration : 46mn 0s
Bit rate mode : Constant
Bit rate : 192 Kbps
Channel(s) : 2 channels
Channel positions : Front: L R
Sampling rate : 48.0 KHz
Bit depth : 16 bits
Compression mode : Lossy
Stream size : 63.2 MiB (10%)
Language : Russian
Default : Yes
Forced : No
Audio #2
ID : 3
Format : AC-3
Format/Info : Audio Coding 3
Mode extension : CM (complete main)
Format settings, Endianness : Big
Muxing mode : Header stripping
Codec ID : A_AC3
Duration : 46mn 0s
Bit rate mode : Constant
Bit rate : 192 Kbps
Channel(s) : 2 channels
Channel positions : Front: L R
Sampling rate : 48.0 KHz
Bit depth : 16 bits
Compression mode : Lossy
Stream size : 63.2 MiB (10%)
Language : Japanese
Default : No
Forced : No
Text
ID : 5
Format : UTF-8
Codec ID : S_TEXT/UTF8
Codec ID/Info : UTF-8 Plain Text
Language : Russian
Default : No
Forced : No

Создавать темы 17-Май-2015 10:35

[Профиль]  [ЛС] 
Показать сообщения:    
Ответить на тему

Текущее время: 11-Дек 12:23

Часовой пояс: UTC + 5



Вы не можете начинать темы
Вы не можете отвечать на сообщения
Вы не можете редактировать свои сообщения
Вы не можете удалять свои сообщения
Вы не можете голосовать в опросах
Вы не можете прикреплять файлы к сообщениям
Вы не можете скачивать файлы