Драгонболл: Фильм четвёртый / Dragon Ball: The Path to Power (Ямаути Сигэясу) [Movie] [Без хардсаба] [RUS(int),JAP] [1996г., приключения, комедия, фэнтези DVDRip]

Ответить на тему
 

SoluSoull ®

Стаж: 2 года 7 месяцев

Сообщений: 379

Симпатии: 452

Dragon Ball: The Path to Power
Драгонболл: Фильм четвёртый-Производство: Япония
Год выпуска: 1996
Жанр: приключения, комедия, фэнтези
Тип: полнометражный фильм, 80 мин.-Перевод:
Озвучка от Animegroup-Режиссёр: Ямаути Сигэясу
Автор оригинала: Торияма Акира
Студия: TOEI ANIMATION-Описание: Девочка Бульма, отправилась на поиски драконьих жемчужин, благодаря которым можно исполнить абсолютно любое желание. Во время поисков, она встретила странного мальчика по имени Гоку. Объединившись, они отправились в путешествие вместе, Бульма – в поисках Драгон Болла, Гоку – в стремлении стать сильным.-Качество: DVDRip \ Формат: MKV
Тип видео: без хардсаба
Видео: AVC, 656x480 (4:3), 1371 кбит/с, 23,976 fps
Аудио RUS: AC3, 2/0 (L,R) ch, 192 kbps, 48 kHz
Аудио JAP: AC3, 2/0 (L,R) ch, 192 kbps, 48 kHz-

Скриншоты

MI

General
Unique ID : 193140127903608849022829060275200997774 (0x914D6F821EE547D58C083187ABF6398E)
Complete name : F:\[RAZNEW]\Dragon Ball\сезон 1\Movie\Dragon Ball - Movie 4 - The Path to Power.mkv
Format : Matroska
Format version : Version 2
File size : 1.11 GiB
Duration : 1h 19mn
Overall bit rate : 1 986 Kbps
Encoded date : UTC 2012-03-03 15:55:57
Writing application : mkvmerge v5.2.1 ('A Far Off Place') built on Jan 2 2012 23:21:10
Writing library : libebml v1.2.3 + libmatroska v1.3.0
Video
ID : 1
Format : AVC
Format/Info : Advanced Video Codec
Format profile : [email protected]
Format settings, CABAC : Yes
Format settings, ReFrames : 10 frames
Muxing mode : Header stripping
Codec ID : V_MPEG4/ISO/AVC
Duration : 1h 19mn
Bit rate : 1 371 Kbps
Width : 656 pixels
Height : 480 pixels
Display aspect ratio : 4:3
Frame rate mode : Constant
Frame rate : 23.976 fps
Color space : YUV
Chroma subsampling : 4:2:0
Bit depth : 8 bits
Scan type : Progressive
Bits/(Pixel*Frame) : 0.182
Stream size : 781 MiB (69%)
Writing library : x264 core 120 r2164 da19765
Encoding settings : cabac=1 / ref=10 / deblock=1:1:1 / analyse=0x3:0x113 / me=umh / subme=8 / psy=1 / psy_rd=0.40:0.00 / mixed_ref=1 / me_range=16 / chroma_me=1 / trellis=1 / 8x8dct=1 / cqm=0 / deadzone=21,11 / fast_pskip=1 / chroma_qp_offset=-2 / threads=6 / sliced_threads=0 / nr=0 / decimate=1 / interlaced=0 / bluray_compat=0 / constrained_intra=0 / bframes=5 / b_pyramid=2 / b_adapt=2 / b_bias=0 / direct=3 / weightb=1 / open_gop=0 / weightp=2 / keyint=240 / keyint_min=23 / scenecut=40 / intra_refresh=0 / rc_lookahead=50 / rc=crf / mbtree=1 / crf=19.0 / qcomp=0.60 / qpmin=0 / qpmax=69 / qpstep=4 / ip_ratio=1.40 / aq=1:0.60
Language : English
Default : Yes
Forced : No
Audio #1
ID : 2
Format : AC-3
Format/Info : Audio Coding 3
Mode extension : CM (complete main)
Format settings, Endianness : Big
Muxing mode : Header stripping
Codec ID : A_AC3
Duration : 1h 19mn
Bit rate mode : Constant
Bit rate : 192 Kbps
Channel(s) : 2 channels
Channel positions : Front: L R
Sampling rate : 48.0 KHz
Bit depth : 16 bits
Compression mode : Lossy
Stream size : 109 MiB (10%)
Language : Russian
Default : No
Forced : No
Audio #2
ID : 3
Format : AC-3
Format/Info : Audio Coding 3
Mode extension : CM (complete main)
Format settings, Endianness : Big
Muxing mode : Header stripping
Codec ID : A_AC3
Duration : 1h 19mn
Bit rate mode : Constant
Bit rate : 192 Kbps
Channel(s) : 2 channels
Channel positions : Front: L R
Sampling rate : 48.0 KHz
Bit depth : 16 bits
Compression mode : Lossy
Stream size : 109 MiB (10%)
Language : Japanese
Default : No
Forced : No

Создавать темы 17-Май-2015 10:42

[Профиль]  [ЛС] 
Показать сообщения:    
Ответить на тему

Текущее время: 22-Окт 09:32

Часовой пояс: UTC + 5



Вы не можете начинать темы
Вы не можете отвечать на сообщения
Вы не можете редактировать свои сообщения
Вы не можете удалять свои сообщения
Вы не можете голосовать в опросах
Вы не можете прикреплять файлы к сообщениям
Вы не можете скачивать файлы