Драгонболл Зет: Фильм второй / Dragon Ball Z: The World's Strongest (Нисио Дайсукэ) [Movie] [Без хардсаба] [RUS(int),JAP] [1990г., приключения, фэнтези BDRip] [720p]

Ответить на тему
 

SoluSoull ®

Стаж: 2 года 9 месяцев

Сообщений: 379

Симпатии: 452

Dragon Ball Z: The World's Strongest
Драгонболл Зет: Фильм второй-Производство: Япония
Год выпуска: 1990
Жанр: приключения, фэнтези
Тип: полнометражный фильм, 60 мин.-Перевод:
Озвучка от Shoker-Режиссёр: Нисио Дайсукэ
Автор оригинала: Торияма Акира
Студия: TOEI ANIMATION-Описание: Много лет прошло с тех пор, как умер доктор Уйро, но перед смертью мозг был помещен в тело робота! С тех пор он много лет провел в поисках самого сильного человека на планете, чтобы тот стал заменой его механическому телу. И вот, наконец, его помощник находит Мутен Роши - победителя Турнира Tenkaichi и провозглашенного мастером боевых искусств. Думая, что Роши - самый сильный человек в мире, они захватывают его; но когда приходит Гоку, чтобы спасти своего наставника, планы Уйро меняются...-Качество: BDRip \ Формат: MKV
Тип видео: без хардсаба
Видео: AVC, 1280x720, 23.976 fps, 4904 Кбит/сек, 8 bit
Аудио RUS: AC3, 48000Hz, 2ch, 192 кбит/сек
Аудио JAP: AC3, 48000Hz, 1ch, 192 Кбит/сек-

Скриншоты

MI

General
Unique ID : 214669885375566770656710101927750721679 (0xA17FEA819DF18F0BBCACED608166E08F)
Complete name : F:\[RAZNEW]\Dragon Ball\сезон 2\Movie\Dragon Ball Z - Movie 02 - The World's Strongest.mkv
Format : Matroska
Format version : Version 4 / Version 2
File size : 2.21 GiB
Duration : 59mn 29s
Overall bit rate : 5 327 Kbps
Movie name : Dragon Ball Z Movie 2 - The World's Strongest (1990)
Encoded date : UTC 2014-01-02 15:42:18
Writing application : mkvmerge v6.4.1 ('Omega Point') built on Sep 16 2013 22:05:10
Writing library : libebml v1.3.0 + libmatroska v1.4.1
Attachements : tt0843m_.TTF
Video
ID : 1
Format : AVC
Format/Info : Advanced Video Codec
Format profile : [email protected]
Format settings, CABAC : Yes
Format settings, ReFrames : 16 frames
Codec ID : V_MPEG4/ISO/AVC
Duration : 59mn 29s
Bit rate : 4 940 Kbps
Width : 1 280 pixels
Height : 720 pixels
Display aspect ratio : 16:9
Frame rate mode : Constant
Frame rate : 23.976 fps
Color space : YUV
Chroma subsampling : 4:2:0
Bit depth : 8 bits
Scan type : Progressive
Bits/(Pixel*Frame) : 0.224
Stream size : 2.01 GiB (91%)
Writing library : x264 core 60 r877M c74a8e2
Encoding settings : cabac=1 / ref=16 / deblock=1:-3:-3 / analyse=0x3:0x133 / me=umh / subme=7 / me-prepass=0 / brdo=1 / mixed_ref=1 / me_range=16 / chroma_me=1 / trellis=0 / 8x8dct=1 / cqm=2 / deadzone=21,11 / chroma_qp_offset=0 / threads=6 / nr=0 / decimate=1 / mbaff=0 / fgo=0 / bframes=16 / b_pyramid=1 / b_adapt=1 / b_bias=0 / direct=3 / wpredb=1 / bime=1 / keyint=250 / keyint_min=25 / scenecut=40(pre) / rc=2pass / bitrate=4940 / ratetol=1.0 / rceq='blurCplx^(1-qComp)' / qcomp=1.00 / qpmin=10 / qpmax=51 / qpstep=4 / cplxblur=20.0 / qblur=0.5 / ip_ratio=1.40 / pb_ratio=1.30 / aq=2:0.80
Language : Japanese
Default : Yes
Forced : No
Audio #1
ID : 2
Format : AC-3
Format/Info : Audio Coding 3
Mode extension : CM (complete main)
Format settings, Endianness : Big
Codec ID : A_AC3
Duration : 59mn 29s
Bit rate mode : Constant
Bit rate : 192 Kbps
Channel(s) : 2 channels
Channel positions : Front: L R
Sampling rate : 48.0 KHz
Bit depth : 16 bits
Compression mode : Lossy
Stream size : 81.7 MiB (4%)
Title : Rus
Language : Russian
Default : Yes
Forced : No
Audio #2
ID : 3
Format : AC-3
Format/Info : Audio Coding 3
Mode extension : CM (complete main)
Format settings, Endianness : Big
Codec ID : A_AC3
Duration : 59mn 29s
Bit rate mode : Constant
Bit rate : 192 Kbps
Channel(s) : 1 channel
Channel positions : Front: C
Sampling rate : 48.0 KHz
Bit depth : 16 bits
Compression mode : Lossy
Stream size : 81.7 MiB (4%)
Title : Original
Language : Japanese
Default : No
Forced : No

Создавать темы 17-Май-2015 11:02

[Профиль]  [ЛС] 
Показать сообщения:    
Ответить на тему

Текущее время: 16-Дек 14:20

Часовой пояс: UTC + 5



Вы не можете начинать темы
Вы не можете отвечать на сообщения
Вы не можете редактировать свои сообщения
Вы не можете удалять свои сообщения
Вы не можете голосовать в опросах
Вы не можете прикреплять файлы к сообщениям
Вы не можете скачивать файлы