Драгонболл Зет: Фильм третий / Dragon Ball Z: The Tree of Might (Нисио Дайсукэ) [Movie] [Без хардсаба] [RUS(int),JAP] [1990г., приключения, фэнтези BDRip] [720p]

Ответить на тему
 

SoluSoull ®

Стаж: 2 года 7 месяцев

Сообщений: 379

Симпатии: 452

Dragon Ball Z: The Tree of Might
Драгонболл Зет: Фильм третий-Производство: Япония
Год выпуска: 1990
Жанр: приключения, фэнтези
Тип: полнометражный фильм, 60 мин.-Перевод:
Озвучка от Shoker-Режиссёр: Нисио Дайсукэ
Автор оригинала: Торияма Акира
Студия: TOEI ANIMATION-Описание: Семя Древа Власти было посажено на Земле, группой космических пиратов. Когда корни прорастут, Древо Власти будет пожирать всю жизненную энергию, превратив землю в заброшенную пустыню, где в живых не кто не сможет остаться. Сон-Гоку и друзья пытаются уничтожить дерево, но их сил не достаточно что бы уничтожить его.-Качество: BDRip \ Формат: MKV
Тип видео: без хардсаба
Видео: AVC(H264) 1280x720 23.976fps 3756kbps, 8bit
Аудио RUS: AC3, 48000Hz, 2ch, 640kbps
Аудио JAP: Dolby AC3, 48000Hz, 2ch, 640kbps-

Скриншоты

MI

General
Unique ID : 182474004314335057507989555119731112146 (0x8947370390377CD194A1F535C8E9F8D2)
Complete name : F:\[RAZNEW]\Dragon Ball\сезон 2\Movie\Dragon Ball Z - Movie 03 - The Tree of Might.mkv
Format : Matroska
Format version : Version 4 / Version 2
File size : 1.99 GiB
Duration : 1h 0mn
Overall bit rate : 4 688 Kbps
Encoded date : UTC 2015-05-16 07:55:33
Writing application : mkvmerge v7.0.0 ('Where We Going') 64bit built on Jun 9 2014 15:16:27
Writing library : libebml v1.3.0 + libmatroska v1.4.1
DURATION : 01:00:53.664000000
NUMBER_OF_FRAMES : 114177
NUMBER_OF_BYTES : 292293120
_STATISTICS_WRITING_APP : mkvmerge v7.0.0 ('Where We Going') 64bit built on Jun 9 2014 15:16:27
_STATISTICS_WRITING_DATE_UT : 2015-05-16 07:55:33
_STATISTICS_TAGS : BPS DURATION NUMBER_OF_FRAMES NUMBER_OF_BYTES
Video
ID : 1
Format : AVC
Format/Info : Advanced Video Codec
Format profile : [email protected]
Format settings, CABAC : Yes
Format settings, ReFrames : 5 frames
Codec ID : V_MPEG4/ISO/AVC
Duration : 1h 0mn
Bit rate : 3 855 Kbps
Width : 1 280 pixels
Height : 720 pixels
Display aspect ratio : 16:9
Frame rate mode : Constant
Frame rate : 23.976 fps
Color space : YUV
Chroma subsampling : 4:2:0
Bit depth : 8 bits
Scan type : Progressive
Bits/(Pixel*Frame) : 0.174
Stream size : 1.60 GiB (80%)
Writing library : x264 core 64 r988 41c9e22
Encoding settings : cabac=1 / ref=5 / deblock=1:0:0 / analyse=0x3:0x113 / me=umh / subme=6 / psy_rd=1.0:0.0 / brdo=1 / mixed_ref=1 / me_range=16 / chroma_me=1 / trellis=1 / 8x8dct=1 / cqm=0 / deadzone=21,11 / chroma_qp_offset=-2 / threads=6 / nr=0 / decimate=1 / mbaff=0 / bframes=3 / b_pyramid=1 / b_adapt=1 / b_bias=0 / direct=1 / wpredb=1 / bime=1 / keyint=250 / keyint_min=25 / scenecut=40(pre) / rc=2pass / bitrate=3855 / ratetol=1.0 / qcomp=0.60 / qpmin=10 / qpmax=51 / qpstep=4 / cplxblur=20.0 / qblur=0.5 / ip_ratio=1.40 / pb_ratio=1.30 / aq=1:1.00
Language : English
Default : Yes
Forced : No
DURATION : 01:00:53.614000000
NUMBER_OF_FRAMES : 87599
NUMBER_OF_BYTES : 1760378068
_STATISTICS_WRITING_APP : mkvmerge v7.0.0 ('Where We Going') 64bit built on Jun 9 2014 15:16:27
_STATISTICS_WRITING_DATE_UT : 2015-05-16 07:55:33
_STATISTICS_TAGS : BPS DURATION NUMBER_OF_FRAMES NUMBER_OF_BYTES
Audio #1
ID : 2
Format : AC-3
Format/Info : Audio Coding 3
Mode extension : CM (complete main)
Format settings, Endianness : Big
Codec ID : A_AC3
Duration : 1h 0mn
Bit rate mode : Constant
Bit rate : 192 Kbps
Channel(s) : 2 channels
Channel positions : Front: L R
Sampling rate : 48.0 KHz
Bit depth : 16 bits
Compression mode : Lossy
Delay relative to video : 1s 0ms
Stream size : 83.6 MiB (4%)
Title : Rus
Language : Russian
Default : Yes
Forced : No
Audio #2
ID : 3
Format : AC-3
Format/Info : Audio Coding 3
Mode extension : CM (complete main)
Format settings, Endianness : Big
Codec ID : A_AC3
Duration : 1h 0mn
Bit rate mode : Constant
Bit rate : 640 Kbps
Channel(s) : 2 channels
Channel positions : Front: L R
Sampling rate : 48.0 KHz
Bit depth : 16 bits
Compression mode : Lossy
Stream size : 279 MiB (14%)
Title : Original
Language : Japanese
Default : No
Forced : No

Создавать темы 17-Май-2015 11:18

[Профиль]  [ЛС] 
Показать сообщения:    
Ответить на тему

Текущее время: 22-Окт 18:43

Часовой пояс: UTC + 5



Вы не можете начинать темы
Вы не можете отвечать на сообщения
Вы не можете редактировать свои сообщения
Вы не можете удалять свои сообщения
Вы не можете голосовать в опросах
Вы не можете прикреплять файлы к сообщениям
Вы не можете скачивать файлы