Драгонболл Зет: Фильм четвертый / Dragon Ball Z: Lord Slug (Хасимото Мицуо) [Movie] [Без хардсаба] [RUS(int)] [1991г., приключения, фэнтези BDRip] [720p]

Ответить на тему
 

SoluSoull ®

Стаж: 2 года 7 месяцев

Сообщений: 379

Симпатии: 452

Dragon Ball Z: Lord Slug
Драгонболл Зет: Фильм четвертый-Производство: Япония
Год выпуска: 1991
Жанр: приключения, фэнтези
Тип: короткометражный фильм, 50 мин.-Перевод:
Озвучка от Shoker-Режиссёр: Хасимото Мицуо
Автор оригинала: Торияма Акира
Студия: TOEI ANIMATION-Описание: Конец света грозит Земле в форме приближающегося гигантского астероида. Гоку и Курилин спешат к нему навстречу и, используя свои невероятные силы, сбивают астероид с его курса. Земля спасена... или это еще не конец истории? Темный корабль спускается с поверхности астероида и несет он нового врага - Господина Слага.-Качество: BDRip \ Формат: MKV
Тип видео: без хардсаба
Видео: AVC(H264) 1280x720 23.976fps 4639kbps 8 bit
Аудио: Dolby AC3, 48000Hz, 2ch, 192kbps-

Скриншоты

MI

General
Unique ID : 251436833488286361837967653390433586187 (0xBD28F90124C255C3B3F4BF9152130C0B)
Complete name : F:\[RAZNEW]\Dragon Ball\сезон 2\Movie\Dragon Ball Z - Movie 04 - Lord Slug.mkv
Format : Matroska
Format version : Version 4 / Version 2
File size : 1.79 GiB
Duration : 51mn 50s
Overall bit rate : 4 949 Kbps
Encoded date : UTC 2014-05-13 11:50:27
Writing application : mkvmerge v6.4.1 ('Omega Point') built on Sep 16 2013 22:05:10
Writing library : libebml v1.3.0 + libmatroska v1.4.1
Video
ID : 1
Format : AVC
Format/Info : Advanced Video Codec
Format profile : High@L3.1
Format settings, CABAC : Yes
Format settings, ReFrames : 5 frames
Codec ID : V_MPEG4/ISO/AVC
Duration : 51mn 50s
Bit rate : 4 755 Kbps
Width : 1 280 pixels
Height : 720 pixels
Display aspect ratio : 16:9
Frame rate mode : Constant
Frame rate : 23.976 fps
Color space : YUV
Chroma subsampling : 4:2:0
Bit depth : 8 bits
Scan type : Progressive
Bits/(Pixel*Frame) : 0.215
Stream size : 1.69 GiB (94%)
Writing library : x264 core 64 r988 41c9e22
Encoding settings : cabac=1 / ref=5 / deblock=1:0:0 / analyse=0x3:0x113 / me=umh / subme=6 / psy_rd=1.0:0.0 / brdo=1 / mixed_ref=1 / me_range=16 / chroma_me=1 / trellis=1 / 8x8dct=1 / cqm=0 / deadzone=21,11 / chroma_qp_offset=-2 / threads=6 / nr=0 / decimate=1 / mbaff=0 / bframes=3 / b_pyramid=1 / b_adapt=1 / b_bias=0 / direct=1 / wpredb=1 / bime=1 / keyint=250 / keyint_min=25 / scenecut=40(pre) / rc=2pass / bitrate=4755 / ratetol=1.0 / qcomp=0.60 / qpmin=10 / qpmax=51 / qpstep=4 / cplxblur=20.0 / qblur=0.5 / ip_ratio=1.40 / pb_ratio=1.30 / aq=1:1.00
Language : English
Default : Yes
Forced : No
Audio
ID : 2
Format : AC-3
Format/Info : Audio Coding 3
Mode extension : CM (complete main)
Format settings, Endianness : Big
Codec ID : A_AC3
Duration : 51mn 50s
Bit rate mode : Constant
Bit rate : 192 Kbps
Channel(s) : 2 channels
Channel positions : Front: L R
Sampling rate : 48.0 KHz
Bit depth : 16 bits
Compression mode : Lossy
Stream size : 71.2 MiB (4%)
Default : Yes
Forced : No

Создавать темы 17-Май-2015 11:25

[Профиль]  [ЛС] 
Показать сообщения:    
Ответить на тему

Текущее время: 23-Окт 09:15

Часовой пояс: UTC + 5



Вы не можете начинать темы
Вы не можете отвечать на сообщения
Вы не можете редактировать свои сообщения
Вы не можете удалять свои сообщения
Вы не можете голосовать в опросах
Вы не можете прикреплять файлы к сообщениям
Вы не можете скачивать файлы