Игра на выживание / Beyond the Reach (Жан-Батист Леонетти) [2014, США, триллер, Web-DLRip] (Dub)Чистый звук

Ответить на тему
 

Davron1402 ®

Стаж: 3 года 8 месяцев

Сообщений: 136

Симпатии: 122

Игра на выживание / Beyond the Reach- Страна: США
Жанр: триллер
Год выпуска: 2014
Продолжительность: 01:31:41
Перевод: Профессиональный (дублированный) Чистый звук
Cубтитры: нет
Режиссер: Жан-Батист Леонетти
В ролях: Майкл Дуглас, Джереми Ирвин, Ханна Мэнгэн Лоуренс, Ронни Кокс, Патрисия Бетун, Мартин Палмер, Дэвид Гарвер
Описание: Корпоративная акула и его бедный молодой гид сыграют в самую опасную игру во время охоты в пустыне Мохаве.
Доп. информация:
Сценарий: Стивен Саско, Робб Уайт
Продюсер: Майкл Дуглас, Роберт Митас, Филлип Элвей
Оператор: Рассел Карпентер
Композитор: Дикон Хинчлифф
Художник: Кларк Хантер, Джеймс Ф. Оберлэндер, Лали Пооре
Монтаж: Адам Вульф
Качество видео:Web-DLRip
Формат видео: AVI
Видео: MPEG-4 Visual, 720 x 304 (2.35:1), 23.976 fps, 1 881 Kbps
Аудио: AC-3, 48.0 KHz, 2 channels, 384 Kbps- 

MediaInfo

Имя файла: Игра на выживание .2014.WEB-DLRip.avi
Формат файла: .avi (AVI)
Размер файла: 1.46 GB
Длительность: 1h 31mn
Навигация по главам: Нет
Bitrate (все потоки): 2 274 Kbps
Тип потока: Альбом
Тип потока: Видео
Длительность: 01:31:41
Кодек: MPEG-4 Visual
Кодек/Профиль: Advanced [email protected]
Кодек/ID: XVID
Размеры изображения: 720 x 304 (2.35:1)
Частота кадров: 23.976 fps
Размер потока: 1.20 GiB (83%)
Битрейт: 1 881 Kbps
Библиотека кодирования: XviD 73
Цветовое пространство: YUV
Тип развёртки: Progressive
Глубина: 8 bits
Тип потока: Звук #1
Длительность: 01:31:41.992
Кодек: AC-3
Кодек/ID: 2000
Частота дискретизации: 48.0 KHz
Каналов: 2 channels
Битрейт: 384 Kbps
Битрейт/тип: Constant
Размер потока: 252 MiB (17%)
Глубина: 16 bits
Метод сжатия: Lossy

Скриншоты






Последний раз редактировалось: Davron1402 (2015-05-17 18:17), всего редактировалось 1 раз

Создавать темы 17-Май-2015 14:18

[Профиль]  [ЛС] 
Показать сообщения:    
Ответить на тему

Текущее время: 19-Сен 20:22

Часовой пояс: UTC + 5



Вы не можете начинать темы
Вы не можете отвечать на сообщения
Вы не можете редактировать свои сообщения
Вы не можете удалять свои сообщения
Вы не можете голосовать в опросах
Вы не можете прикреплять файлы к сообщениям
Вы не можете скачивать файлы