Прежде чем я уйду / Just Before I Go (Кортни Кокс) [214, США, драма, комедия, HDRip]

Ответить на тему
 

Каротажник ®

Стаж: 4 года

Сообщений: 195

Симпатии: 211

Прежде чем я уйду / Just Before I Go
Страна: США
Жанр: драма, комедия
Год выпуска: 2014--Продолжительность: 01:30:43
Озвучивание: Любительский одноголосый [Paul Bunyan]
Примечание: Присутствует ненормативная лексика!--Режиссер: Кортни Кокс
В ролях: Шонн Уильям Скотт, Оливия Тирлби, Гаррет Диллахант, Кейт Уолш, Кайл Галлнер, Роб Риггл, Ивэн Росс, Клео Кинг, Мисси Пайл, Элиша Катберт--Описание: Жизнь Теда потрепала его так, что стал задумываться о самоубийстве. До такого решения мужчина шел долгое время, ведь еще с самого детства он ощутил на себе, что такое неприятности. Когда он был подростком, то его постоянно терзали и оскорбляли хулиганы, а учитель математики и вовсе любил унижать Теда перед остальными учениками. Со временем детские обиды поутихли, но все же неприятный осадок остался.
По стечению обстоятельств, уже в зрелом возрасте Тед встречает своих обидчиков из детства. Как оказалось, жизнь у них сложилась тоже совсем непросто, ведь один хулиган, теперь уже вдовец и самостоятельно воспитывает сына с синдромом Дауна, и содержит его на свой очень скромный заработок. Преподаватель математики и вовсе сошел с ума, и теперь проходит лечение в больнице для душевнобольных. Хотя, жизнь, по сути, наказала обидчиков Теда, но его все равно не покидают мысли о суициде…-- 
--Качество видео: HDRip
Формат видео: AVI--Видео: Xvid 720x304 23.976fps 1698kbps
Аудио: AC3 48000Hz 6ch 448kbps

MediaInfo

Format/Info : Audio Video Interleave
File size : 1.37 GiB
Duration : 1h 30mn
Overall bit rate : 2 156 Kbps
Writing application : VirtualDubMod 1.5.10.3 | www.virtualdub-fr.org || (build 2550/release)
Writing library : VirtualDubMod build 2550/release
Video
ID : 0
Format : MPEG-4 Visual
Format profile : Advanced [email protected]
Format settings, BVOP : Yes
Format settings, QPel : No
Format settings, GMC : No warppoints
Format settings, Matrix : Default (H.263)
Codec ID : XVID
Codec ID/Hint : XviD
Duration : 1h 30mn
Bit rate : 1 699 Kbps
Width : 720 pixels
Height : 304 pixels
Display aspect ratio : 2.35:1
Frame rate : 23.976 fps
Color space : YUV
Chroma subsampling : 4:2:0
Bit depth : 8 bits
Scan type : Progressive
Compression mode : Lossy
Bits/(Pixel*Frame) : 0.324
Stream size : 1.08 GiB (79%)
Writing library : XviD 66
Audio
ID : 1
Format : AC-3
Format/Info : Audio Coding 3
Mode extension : CM (complete main)
Format settings, Endianness : Big
Codec ID : 2000
Duration : 1h 30mn
Bit rate mode : Constant
Bit rate : 448 Kbps
Channel(s) : 6 channels
Channel positions : Front: L C R, Side: L R, LFE
Sampling rate : 48.0 KHz
Bit depth : 16 bits
Compression mode : Lossy
Stream size : 291 MiB (21%)
Alignment : Split accross interleaves
Interleave, duration : 42 ms (1.00 video frame)
Interleave, preload duration : 500 ms

Скриншоты


Создавать темы 17-Май-2015 17:39

[Профиль]  [ЛС] 
Показать сообщения:    
Ответить на тему

Текущее время: 18-Окт 16:24

Часовой пояс: UTC + 5



Вы не можете начинать темы
Вы не можете отвечать на сообщения
Вы не можете редактировать свои сообщения
Вы не можете удалять свои сообщения
Вы не можете голосовать в опросах
Вы не можете прикреплять файлы к сообщениям
Вы не можете скачивать файлы