Драгонболл Зет: Спэшл первый / Dragon Ball Z: Bardock - The Father of Goku [Special] [1 из 1] [Без хардсаба] [RUS(int), JAP] [1990 г., приключения, фэнтези, BDRip] [720p]

Ответить на тему
 

SoluSoull ®

Стаж: 2 года 5 месяцев

Сообщений: 379

Симпатии: 452

Dragon Ball Z: Bardock - The Father of Goku
Драгонболл Зет: спэшл первый-Производство: Япония
Год выпуска: 1990
Жанр: приключения, фэнтези
Тип: ТВ-спэшл (1 эп.), 50 мин.-Перевод:
Озвучка от Shoker-Режиссёр: Хасимото Мицуо
Автор оригинала: Торияма Акира
Студия: TOEI ANIMATION-Описание: Рассказывается история Бардока - отца Сон Гоку. Он и его маленькая группа воинов "низшего" ранга постоянно побеждает даже в самых сложных боях. На одной из планет, которую они захватили, "местный" делится с Бардоком даром предвидеть будущее, чтобы он познал страх перед неизбежнам уничтожением всей своей расы.-Качество: BDRip \ Формат: MKV
Тип видео: без хардсаба
Видео: AVC(H264) 1280x720 23.976fps 5270kbps, 8 bit
Аудио RUS: Dolby AC3, 48000Hz, 2ch, 192kbps
Аудио JAP: Dolby AC3, 48000Hz, 1ch, 640kbps-

Скриншоты

MI

General
Unique ID : 196054572280847073091044795453974049093 (0x937EBCB5CB84EC0BBF39811BCCD8F145)
Complete name : F:\[RAZNEW]\Dragon Ball\сезон 2\Special\Dragon Ball Z - Special 01 - Bardock The Father of Goku.mkv
Format : Matroska
Format version : Version 4 / Version 2
File size : 2.04 GiB
Duration : 47mn 45s
Overall bit rate : 6 104 Kbps
Encoded date : UTC 2014-04-28 12:27:08
Writing application : mkvmerge v6.4.1 ('Omega Point') built on Sep 16 2013 22:05:10
Writing library : libebml v1.3.0 + libmatroska v1.4.1
Video
ID : 1
Format : AVC
Format/Info : Advanced Video Codec
Format profile : [email protected]
Format settings, CABAC : Yes
Format settings, ReFrames : 5 frames
Codec ID : V_MPEG4/ISO/AVC
Duration : 47mn 45s
Bit rate : 5 270 Kbps
Width : 1 280 pixels
Height : 720 pixels
Display aspect ratio : 16:9
Frame rate mode : Constant
Frame rate : 23.976 fps
Color space : YUV
Chroma subsampling : 4:2:0
Bit depth : 8 bits
Scan type : Progressive
Bits/(Pixel*Frame) : 0.239
Stream size : 1.72 GiB (84%)
Writing library : x264 core 64 r979 6d4af8d
Encoding settings : cabac=1 / ref=5 / deblock=1:0:0 / analyse=0x3:0x113 / me=umh / subme=6 / psy_rd=1.0:0.0 / brdo=1 / mixed_ref=1 / me_range=16 / chroma_me=1 / trellis=1 / 8x8dct=1 / cqm=0 / deadzone=21,11 / chroma_qp_offset=-2 / threads=6 / nr=0 / decimate=1 / mbaff=0 / bframes=3 / b_pyramid=1 / b_adapt=1 / b_bias=0 / direct=1 / wpredb=1 / bime=1 / keyint=250 / keyint_min=25 / scenecut=40(pre) / rc=2pass / bitrate=5270 / ratetol=1.0 / qcomp=0.60 / qpmin=10 / qpmax=51 / qpstep=4 / cplxblur=20.0 / qblur=0.5 / ip_ratio=1.40 / pb_ratio=1.30 / aq=1:1.00
Language : English
Default : Yes
Forced : No
Audio #1
ID : 2
Format : AC-3
Format/Info : Audio Coding 3
Mode extension : CM (complete main)
Format settings, Endianness : Big
Codec ID : A_AC3
Duration : 47mn 45s
Bit rate mode : Constant
Bit rate : 192 Kbps
Channel(s) : 2 channels
Channel positions : Front: L R
Sampling rate : 48.0 KHz
Bit depth : 16 bits
Compression mode : Lossy
Stream size : 65.6 MiB (3%)
Title : Rus
Language : Russian
Default : Yes
Forced : No
Audio #2
ID : 3
Format : AC-3
Format/Info : Audio Coding 3
Mode extension : CM (complete main)
Format settings, Endianness : Big
Codec ID : A_AC3
Duration : 47mn 45s
Bit rate mode : Constant
Bit rate : 640 Kbps
Channel(s) : 1 channel
Channel positions : Front: C
Sampling rate : 48.0 KHz
Bit depth : 16 bits
Compression mode : Lossy
Stream size : 219 MiB (10%)
Language : Japanese
Default : No
Forced : No


Последний раз редактировалось: SoluSoull (2015-05-18 06:44), всего редактировалось 1 раз

Создавать темы 17-Май-2015 22:35

[Профиль]  [ЛС] 
Показать сообщения:    
Ответить на тему

Текущее время: 18-Авг 13:59

Часовой пояс: UTC + 5



Вы не можете начинать темы
Вы не можете отвечать на сообщения
Вы не можете редактировать свои сообщения
Вы не можете удалять свои сообщения
Вы не можете голосовать в опросах
Вы не можете прикреплять файлы к сообщениям
Вы не можете скачивать файлы