Драгонболл Зет: спэшл второй / Dragon Ball Z: The History of Trunks [Special] [1 из 1] [Без хардсаба] [RUS(int), JAP] [1993 г., приключения, фэнтези, BDRip] [720p]

Ответить на тему
 

SoluSoull ®

Стаж: 2 года 7 месяцев

Сообщений: 379

Симпатии: 452

Dragon Ball Z: The History of Trunks
Драгонболл Зет: спэшл второй-Производство: Япония
Год выпуска: 1993
Жанр: приключения, фэнтези
Тип: ТВ-спэшл (1 эп.), 48 мин.-Перевод:
Озвучка от MifSnaiper-Режиссёр: Нисио Дайсукэ
Автор оригинала: Торияма Акира
Студия: TOEI ANIMATION-Описание: Все мы знаем, что произошло в оригинальном сериале как Транкс изменил настоящее прилетев из будущего и спас Гоку...Но через что на самом деле ему пришлось пройти и какое было его настоящее можно узнать из этого спешала.-Качество: BDRip \ Формат: MKV
Тип видео: без хардсаба
Видео: AVC(H264) 1280x720 23.976fps 5245kbps, 8 bit
Аудио RUS: MP3, 48000Hz, 2ch, 320kbps
Аудио JAP: MP3, 48000Hz, 2ch, 320kbps-

Скриншоты

MI

General
Unique ID : 181383871314122219423242577008654527621 (0x8875434EAD77298DA1126FD922A3AC85)
Complete name : F:\[RAZNEW]\Dragon Ball\сезон 2\Special\Dragon Ball Z - Special 02 - The History of Trunks.mkv
Format : Matroska
Format version : Version 2
File size : 1.97 GiB
Duration : 47mn 55s
Overall bit rate : 5 886 Kbps
Encoded date : UTC 2011-08-27 19:41:19
Writing application : mkvmerge v3.3.0 ('Language') built on Mar 24 2010 14:59:24
Writing library : libebml v0.8.0 + libmatroska v0.9.0
Video
ID : 1
Format : AVC
Format/Info : Advanced Video Codec
Format profile : [email protected]
Format settings, CABAC : Yes
Format settings, ReFrames : 5 frames
Codec ID : V_MPEG4/ISO/AVC
Duration : 47mn 55s
Bit rate : 5 245 Kbps
Width : 1 280 pixels
Height : 720 pixels
Display aspect ratio : 16:9
Frame rate mode : Constant
Frame rate : 23.976 fps
Color space : YUV
Chroma subsampling : 4:2:0
Bit depth : 8 bits
Scan type : Progressive
Bits/(Pixel*Frame) : 0.237
Stream size : 1.72 GiB (87%)
Writing library : x264 core 61 r957 7ce0f2c
Encoding settings : cabac=1 / ref=5 / deblock=1:0:0 / analyse=0x3:0x113 / me=umh / subme=6 / brdo=1 / mixed_ref=1 / me_range=16 / chroma_me=1 / trellis=1 / 8x8dct=1 / cqm=0 / deadzone=21,11 / chroma_qp_offset=0 / threads=6 / nr=0 / decimate=1 / mbaff=0 / bframes=3 / b_pyramid=1 / b_adapt=1 / b_bias=0 / direct=1 / wpredb=1 / bime=1 / keyint=250 / keyint_min=25 / scenecut=40(pre) / rc=2pass / bitrate=5245 / ratetol=1.0 / qcomp=1.00 / qpmin=10 / qpmax=51 / qpstep=4 / cplxblur=20.0 / qblur=0.5 / ip_ratio=1.40 / pb_ratio=1.30 / aq=2:1.00
Language : English
Default : Yes
Forced : No
Audio #1
ID : 2
Format : MPEG Audio
Format version : Version 1
Format profile : Layer 3
Mode : Joint stereo
Mode extension : MS Stereo
Codec ID : A_MPEG/L3
Codec ID/Hint : MP3
Duration : 47mn 55s
Bit rate mode : Constant
Bit rate : 320 Kbps
Channel(s) : 2 channels
Sampling rate : 48.0 KHz
Compression mode : Lossy
Stream size : 110 MiB (5%)
Title : MifSnaiper
Writing library : LAME3.98.2ЄЄЄЄЄЄЄЄЄЄ
Language : Russian
Default : Yes
Forced : No
Audio #2
ID : 3
Format : MPEG Audio
Format version : Version 1
Format profile : Layer 3
Mode : Joint stereo
Mode extension : MS Stereo
Codec ID : A_MPEG/L3
Codec ID/Hint : MP3
Duration : 47mn 55s
Bit rate mode : Constant
Bit rate : 320 Kbps
Channel(s) : 2 channels
Sampling rate : 48.0 KHz
Compression mode : Lossy
Stream size : 110 MiB (5%)
Title : Orig
Writing library : LAME3.98.2ЄЄЄЄЄЄЄЄЄЄ
Language : Japanese
Default : No
Forced : No
Text
ID : 4
Format : ASS
Codec ID : S_TEXT/ASS
Codec ID/Info : Advanced Sub Station Alpha
Compression mode : Lossless
Title : Rus
Language : Russian
Default : No
Forced : No

Создавать темы 17-Май-2015 22:45

[Профиль]  [ЛС] 
Показать сообщения:    
Ответить на тему

Текущее время: 21-Окт 17:25

Часовой пояс: UTC + 5



Вы не можете начинать темы
Вы не можете отвечать на сообщения
Вы не можете редактировать свои сообщения
Вы не можете удалять свои сообщения
Вы не можете голосовать в опросах
Вы не можете прикреплять файлы к сообщениям
Вы не можете скачивать файлы