Вербное воскресенье Серии: 1-8 из 8 (Антон Сиверс) [2009, Драма, история, DVDRip]

Ответить на тему
 

PupuseG ®

Стаж: 5 лет 1 месяц

Сообщений: 514

Симпатии: 64

-Вербное воскресенье -Год выпуска: 2009
Производство: Россия
Жанр: Драма, история
Продолжительность: 52:00
Режиссёр: Антон Сиверс-В ролях: Дмитрий Дюжев, Светлана Иванова, Екатерина Вилкова, Олег Басилашвили, Ирина Лачина, Екатерина Гусева, Татьяна Пилецкая, Ирина Розанова, Светлана Антонова, Алексей Барабаш-Описание: Эта история, возвращает нас в прошлое, в 70-е, а затем в 90-е годы прошлого века. Это история о взаимоотношениях тоталитарной власти и простого человека, о правде и торжестве справедливости.
В эпоху так называемого застоя балет был главным видом искусства. На балетные спектакли в протокольном порядке водили высоких гостей: королей, президентов, премьер-министров. Балерины, молодые, красивые, в меру умненькие — главное украшение дипломатических раутов.
Единственно, чего не желает знать власть, каким каторжным трудом достигается грация и лёгкость на сцене, и делает вид, что уж вовсе не подозревает, какая жестокая, немилосердная борьба идет за кулисами за место в балетной иерархии.-Качество: DVDRip
Формат: AVI
Видео кодек: XviD
Аудио кодек: MP3
Видео: 704x400 (1.76:1), 25 fps, XviD build 46 ~1306 kbps avg, 0.19 bit/pixel
Аудио: 48 kHz, MPEG Layer 3, 2 ch, ~128.00 kbps avg-

MI

Complete name : D:\Video\Сериалы\Вербное воскресенье\01.avi
Format : AVI
Format/Info : Audio Video Interleave
File size : 539 MiB
Duration : 52mn 10s
Overall bit rate : 1 444 Kbps
Writing library : VirtualDub-MPEG2 build 24600/release
Video
ID : 0
Format : MPEG-4 Visual
Format profile : [email protected]
Format settings, BVOP : No
Format settings, QPel : No
Format settings, GMC : No warppoints
Format settings, Matrix : Default (H.263)
Codec ID : XVID
Codec ID/Hint : XviD
Duration : 52mn 10s
Bit rate : 1 306 Kbps
Width : 704 pixels
Height : 400 pixels
Display aspect ratio : 16:9
Frame rate : 25.000 fps
Color space : YUV
Chroma subsampling : 4:2:0
Bit depth : 8 bits
Scan type : Progressive
Compression mode : Lossy
Bits/(Pixel*Frame) : 0.186
Stream size : 487 MiB (90%)
Writing library : XviD 1.1.2 (UTC 2006-11-01)
Audio
ID : 1
Format : MPEG Audio
Format version : Version 1
Format profile : Layer 3
Mode : Joint stereo
Mode extension : MS Stereo
Codec ID : 55
Codec ID/Hint : MP3
Duration : 52mn 10s
Bit rate mode : Constant
Bit rate : 128 Kbps
Channel(s) : 2 channels
Sampling rate : 48.0 KHz
Compression mode : Lossy
Stream size : 47.8 MiB (9%)
Alignment : Split accross interleaves
Interleave, duration : 40 ms (1.00 video frame)
Interleave, preload duratio : 500 ms

Скриншоты



-


Последний раз редактировалось: PupuseG (2015-05-21 19:56), всего редактировалось 2 раз(а)

Создавать темы 18-Май-2015 03:44

[Профиль]  [ЛС] 
Показать сообщения:    
Ответить на тему

Текущее время: 21-Ноя 15:16

Часовой пояс: UTC + 5



Вы не можете начинать темы
Вы не можете отвечать на сообщения
Вы не можете редактировать свои сообщения
Вы не можете удалять свои сообщения
Вы не можете голосовать в опросах
Вы не можете прикреплять файлы к сообщениям
Вы не можете скачивать файлы