Варес – шериф / Vares Sheriffi (Джереми Инман) [2015, Финляндия, криминал, HDRip] (VO : [Хихиdok])

Ответить на тему
 

mp1988 ®

Стаж: 6 лет 8 месяцев

Сообщений: 607

Симпатии: 971

Варес – шериф / Vares Sheriffi
Страна: Финляндия
Жанр: криминал
Год выпуска: 2015
Продолжительность: 01:30:07
Перевод: Одноголосый закадровый [Хихиdok]
Cубтитры: нет
Режиссер: Джереми Инман
В ролях: Антти Рейни, Яспер Пяякконен, Микко Коуки, Матти Оннисмаа, Каролина Блэкберн, Конста Мякеля, Илка Хайсканен, Юкка-Пекка Пало, Эппу Салминен, Юкка Пуотила
Описание: Талантливый детектив Варес пользуется популярностью среди клиентов, потому что он с легкостью решает дела, связанные с мошенничествами и изменами, за что получает хороший доход. Но недавно с Варесом встретился его старинный приятель, который попросил его расследовать дело, связанное с убийством молодой девушки. Как только детектив приступил к новому расследованию, то он понял, что дело довольно запутано и неоднозначно. Чем больше Варес погружался в мир фактов и улик по новому делу, тем сильнее убеждался в том, что его ждут страшные открытия и та истина, которую он бы не хотел знать.
Доп. информация:
Качество видео: HDRip
Формат видео: AVI
Видео: XviD 1961 kb/s, 720x304
Аудио: AC3, 192 kb/s (2 ch)

MediaInfo

Общее
Полное имя : D:\FILM\Vares.Sheriffi.2015.L1.HDRip.1400MB.avi
Формат : AVI
Формат/Информация : Audio Video Interleave
Размер файла : 1,36 Гбайт
Продолжительность : 1 ч. 30 м.
Общий поток : 2162 Кбит/сек
Программа кодирования : VirtualDubMod 1.5.10.2 (build 2540/release)
Библиотека кодирования : VirtualDubMod build 2540/release
Видео
Идентификатор : 0
Формат : MPEG-4 Visual
Профиль формата : Advanced [email protected]
Параметр BVOP формата : 2
Параметр QPel формата : Нет
Параметр GMC формата : Без точки перехода
Параметр матрицы формата : Default (MPEG)
Идентификатор кодека : XVID
Идентификатор кодека/Подсказка : XviD
Продолжительность : 1 ч. 30 м.
Битрейт : 1961 Кбит/сек
Ширина : 720 пикселей
Высота : 304 пикселя
Соотношение сторон : 2,35:1
Частота кадров : 23,976 кадра/сек
Цветовое пространство : YUV
Субдискретизация насыщенности : 4:2:0
Битовая глубина : 8 бит
Тип развёртки : Прогрессивная
Метод сжатия : С потерями
Бит/(Пиксели*Кадры) : 0.374
Размер потока : 1,23 Гбайт (91%)
Библиотека кодирования : XviD 1.2.1 (UTC 2008-12-04)
Аудио
Идентификатор : 1
Формат : AC-3
Формат/Информация : Audio Coding 3
Расширение режима : CM (complete main)
Параметр Endianness формата : Big
Идентификатор кодека : 2000
Продолжительность : 1 ч. 30 м.
Вид битрейта : Постоянный
Битрейт : 192 Кбит/сек
Каналы : 2 канала
Расположение каналов : Front: L R
Частота : 48,0 КГц
Битовая глубина : 16 бит
Метод сжатия : С потерями
Размер потока : 124 Мбайт (9%)
Выравнивание : Разделение по промежуткам
Продолжительность промежутка : 42 мс. (1,00 видеокадр)
Время предзагрузки промежутка : 500 мс.

Скриншоты





Последний раз редактировалось: mp1988 (2015-05-18 23:06), всего редактировалось 3 раз(а)

Создавать темы 18-Май-2015 21:43

[Профиль]  [ЛС] 

ximik

Стаж: 6 лет 9 месяцев

Сообщений: 29

Симпатии: 30

ag

шутка

Надеюсь эт не единого по*ка за целый фильм....

Создавать темы 18-Май-2015 21:52

[Профиль]  [ЛС] 
Показать сообщения:    
Ответить на тему

Текущее время: 23-Окт 01:52

Часовой пояс: UTC + 5



Вы не можете начинать темы
Вы не можете отвечать на сообщения
Вы не можете редактировать свои сообщения
Вы не можете удалять свои сообщения
Вы не можете голосовать в опросах
Вы не можете прикреплять файлы к сообщениям
Вы не можете скачивать файлы