Драгонболл Зет: Фильм шестой / Dragon Ball Z: The Return of Cooler (Нисио Дайсукэ) [Movie] [Без хардсаба] [RUS(int),JAP] [1992г., приключения, фэнтези BDRip] [720p]

Ответить на тему
 

SoluSoull ®

Стаж: 2 года 7 месяцев

Сообщений: 379

Симпатии: 452

Dragon Ball Z: The Return of Cooler
Драгонболл Зет: Фильм шестой-Производство: Япония
Год выпуска: 1992
Жанр: приключения, фэнтези
Тип: короткометражный фильм, 45 мин.-Перевод:
Озвучка от Shoker-Режиссёр: Нисио Дайсукэ
Автор оригинала: Торияма Акира
Студия: TOEI ANIMATION-Описание: Гиганская "ожившая планета" угрожает существованию Нового Намека. Гоку и его друзья должны спасти намекианцев от угрозы вторжения, но это будет не так просто. На стороне противника армия сильных роботов-охранников. А в глубинах "живой планеты" скрывается уже знакомый нам враг: Кулер.-Качество: BDRip \ Формат: MKV
Тип видео: без хардсаба
Видео: AVC, 1280х720(16/9), 1774 Kbps, 23.976fps, 8 bits
Аудио RUS: AAC, 48000Hz, 2ch, 192kbps
Аудио JAP: AC-3, 48000Hz, 2ch, 640kbps-

Скриншоты

MI

General
Unique ID : 246593097717237909069422125835330096367 (0xB9841A64956576CB8ED2BB19A2718CEF)
Complete name : F:\[RAZNEW]\Dragon Ball\сезон 2\Movie\Dragon Ball Z - Movie 06 - The Return of Cooler.mkv
Format : Matroska
Format version : Version 4 / Version 2
File size : 2.02 GiB
Duration : 45mn 50s
Overall bit rate : 6 313 Kbps
Movie name : Dragon Ball Z Movie 8: Broly - The Legendary Super Saiyan
Encoded date : UTC 2015-05-17 08:25:46
Writing application : mkvmerge v7.0.0 ('Where We Going') 64bit built on Jun 9 2014 15:16:27
Writing library : libebml v1.3.0 + libmatroska v1.4.1
_STATISTICS_WRITING_APP : mkvmerge v7.0.0 ('Where We Going') 64bit built on Jun 9 2014 15:16:27
_STATISTICS_WRITING_DATE_UT : 2015-05-17 08:25:46
_STATISTICS_TAGS : BPS DURATION NUMBER_OF_FRAMES NUMBER_OF_BYTES
DURATION : 00:43:37.610000000
NUMBER_OF_FRAMES : 269
NUMBER_OF_BYTES : 22726
Video
ID : 1
Format : AVC
Format/Info : Advanced Video Codec
Format profile : [email protected]
Format settings, CABAC : Yes
Format settings, ReFrames : 5 frames
Codec ID : V_MPEG4/ISO/AVC
Duration : 45mn 50s
Bit rate : 5 544 Kbps
Width : 1 280 pixels
Height : 720 pixels
Display aspect ratio : 16:9
Frame rate mode : Constant
Frame rate : 23.976 fps
Color space : YUV
Chroma subsampling : 4:2:0
Bit depth : 8 bits
Scan type : Progressive
Bits/(Pixel*Frame) : 0.251
Stream size : 1.74 GiB (86%)
Writing library : x264 core 65 r1028 83baa7f
Encoding settings : cabac=1 / ref=5 / deblock=1:0:0 / analyse=0x3:0x113 / me=umh / subme=7 / psy_rd=1.0:0.0 / mixed_ref=1 / me_range=16 / chroma_me=1 / trellis=1 / 8x8dct=1 / cqm=0 / deadzone=21,11 / chroma_qp_offset=-2 / threads=6 / nr=0 / decimate=1 / mbaff=0 / bframes=3 / b_pyramid=1 / b_adapt=1 / b_bias=0 / direct=1 / wpredb=1 / keyint=250 / keyint_min=25 / scenecut=40(pre) / rc=2pass / bitrate=5544 / ratetol=1.0 / qcomp=0.60 / qpmin=10 / qpmax=51 / qpstep=4 / cplxblur=20.0 / qblur=0.5 / ip_ratio=1.40 / pb_ratio=1.30 / aq=1:1.00
Language : English
Default : Yes
Forced : No
_STATISTICS_WRITING_APP : mkvmerge v7.0.0 ('Where We Going') 64bit built on Jun 9 2014 15:16:27
_STATISTICS_WRITING_DATE_UT : 2015-05-17 08:25:46
_STATISTICS_TAGS : BPS DURATION NUMBER_OF_FRAMES NUMBER_OF_BYTES
DURATION : 00:45:50.711000000
NUMBER_OF_FRAMES : 65951
NUMBER_OF_BYTES : 1905885613
Audio #1
ID : 2
Format : MPEG Audio
Format version : Version 1
Format profile : Layer 2
Codec ID : A_MPEG/L2
Codec ID/Hint : MP2
Duration : 45mn 50s
Bit rate mode : Constant
Bit rate : 128 Kbps
Channel(s) : 2 channels
Sampling rate : 44.1 KHz
Compression mode : Lossy
Delay relative to video : 95ms
Stream size : 42.0 MiB (2%)
Default : Yes
Forced : No
Audio #2
ID : 3
Format : AC-3
Format/Info : Audio Coding 3
Mode extension : CM (complete main)
Format settings, Endianness : Big
Codec ID : A_AC3
Duration : 45mn 50s
Bit rate mode : Constant
Bit rate : 640 Kbps
Channel(s) : 1 channel
Channel positions : Front: C
Sampling rate : 48.0 KHz
Bit depth : 16 bits
Compression mode : Lossy
Stream size : 210 MiB (10%)
Language : Japanese
Default : No
Forced : No
Text
ID : 4
Format : ASS
Codec ID : S_TEXT/ASS
Codec ID/Info : Advanced Sub Station Alpha
Compression mode : Lossless
Default : Yes
Forced : No

Создавать темы 18-Май-2015 21:47

[Профиль]  [ЛС] 
Показать сообщения:    
Ответить на тему

Текущее время: 18-Окт 21:52

Часовой пояс: UTC + 5



Вы не можете начинать темы
Вы не можете отвечать на сообщения
Вы не можете редактировать свои сообщения
Вы не можете удалять свои сообщения
Вы не можете голосовать в опросах
Вы не можете прикреплять файлы к сообщениям
Вы не можете скачивать файлы