Драгонболл Зет: Фильм седьмой / Dragon Ball Z: Super Android 13! (Кикути Кадзухито) [Movie] [Без хардсаба] [RUS(int),JAP] [1992г., приключения, фэнтези BDRip] [720p]

Ответить на тему
 

SoluSoull ®

Стаж: 2 года 5 месяцев

Сообщений: 379

Симпатии: 452

Dragon Ball Z: Super Android 13!
Драгонболл Зет: Фильм седьмой-Производство: Япония
Год выпуска: 1992
Жанр: приключения, фэнтези
Тип: короткометражный фильм, 45 мин.-Перевод:
Озвучка от Shoker-Режиссёр: Кикути Кадзухито
Автор оригинала: Торияма Акира
Студия: TOEI ANIMATION-Описание: Неожиданные взрывы предвещают новую угрозу миру. Но Гоку внезапно понимает, что это он - цель нападения. Кто же эти странные злодеи? Все стало ясно, когда Гоку не смог почувствовать их энергию. Это может означать только одно: они - Андроиды! Однако, Доктор Гиро уже мертв, кто же тогда руководит этими, еще более сильными андроидами?-Качество: BDRip \ Формат: MKV
Тип видео: без хардсаба
Видео: AVC, 1280х720(16/9), 5521Kbps, 23.976fps, 8 bits
Аудио RUS: MP3, 48000Hz, 2ch, 128kbps
Аудио JAP: AC-3, 48000Hz, 2ch, 640kbps-

Скриншоты

MI

General
Unique ID : 175066907105982313529552944010727663491 (0x83B4A8ED059A718C833845C7815E2783)
Complete name : F:\[RAZNEW]\Dragon Ball\сезон 2\Movie\Dragon Ball Z - Movie 07 - Super Android 13!.mkv
Format : Matroska
Format version : Version 4 / Version 2
File size : 2.02 GiB
Duration : 46mn 0s
Overall bit rate : 6 290 Kbps
Encoded date : UTC 2015-05-17 09:12:42
Writing application : mkvmerge v7.0.0 ('Where We Going') 64bit built on Jun 9 2014 15:16:27
Writing library : libebml v1.3.0 + libmatroska v1.4.1
_STATISTICS_WRITING_APP : mkvmerge v7.0.0 ('Where We Going') 64bit built on Jun 9 2014 15:16:27
_STATISTICS_WRITING_DATE_UT : 2015-05-17 09:12:42
_STATISTICS_TAGS : BPS DURATION NUMBER_OF_FRAMES NUMBER_OF_BYTES
DURATION : 00:45:03.230000000
NUMBER_OF_FRAMES : 261
NUMBER_OF_BYTES : 21552
Video
ID : 1
Format : AVC
Format/Info : Advanced Video Codec
Format profile : [email protected]
Format settings, CABAC : Yes
Format settings, ReFrames : 5 frames
Codec ID : V_MPEG4/ISO/AVC
Duration : 46mn 0s
Bit rate : 5 521 Kbps
Width : 1 280 pixels
Height : 720 pixels
Display aspect ratio : 16:9
Frame rate mode : Constant
Frame rate : 23.976 fps
Color space : YUV
Chroma subsampling : 4:2:0
Bit depth : 8 bits
Scan type : Progressive
Bits/(Pixel*Frame) : 0.250
Stream size : 1.73 GiB (86%)
Writing library : x264 core 65 r1074M b6bb3d4
Encoding settings : cabac=1 / ref=5 / deblock=1:-1:-1 / analyse=0x3:0x113 / me=umh / subme=7 / psy_rd=1.0:0.0 / mixed_ref=1 / me_range=16 / chroma_me=1 / trellis=1 / 8x8dct=1 / cqm=1 / deadzone=21,11 / chroma_qp_offset=-2 / threads=8 / nr=0 / decimate=1 / mbaff=0 / bframes=3 / b_pyramid=1 / b_adapt=1 / b_bias=0 / direct=3 / wpredb=1 / keyint=240 / keyint_min=24 / scenecut=40(pre) / rc=2pass / bitrate=5521 / ratetol=1.0 / qcomp=0.60 / qpmin=10 / qpmax=31 / qpstep=4 / cplxblur=20.0 / qblur=0.5 / ip_ratio=1.40 / pb_ratio=1.30 / aq=1:1.00
Language : English
Default : Yes
Forced : No
_STATISTICS_WRITING_APP : mkvmerge v7.0.0 ('Where We Going') 64bit built on Jun 9 2014 15:16:27
_STATISTICS_WRITING_DATE_UT : 2015-05-17 09:12:42
_STATISTICS_TAGS : BPS DURATION NUMBER_OF_FRAMES NUMBER_OF_BYTES
DURATION : 00:45:59.922000000
NUMBER_OF_FRAMES : 66172
NUMBER_OF_BYTES : 1904574636
Audio #1
ID : 2
Format : MPEG Audio
Format version : Version 1
Format profile : Layer 2
Codec ID : A_MPEG/L2
Codec ID/Hint : MP2
Duration : 46mn 0s
Bit rate mode : Constant
Bit rate : 128 Kbps
Channel(s) : 2 channels
Sampling rate : 44.1 KHz
Compression mode : Lossy
Delay relative to video : 95ms
Stream size : 42.1 MiB (2%)
Default : Yes
Forced : No
Audio #2
ID : 3
Format : AC-3
Format/Info : Audio Coding 3
Mode extension : CM (complete main)
Format settings, Endianness : Big
Codec ID : A_AC3
Duration : 46mn 0s
Bit rate mode : Constant
Bit rate : 640 Kbps
Channel(s) : 1 channel
Channel positions : Front: C
Sampling rate : 48.0 KHz
Bit depth : 16 bits
Compression mode : Lossy
Stream size : 211 MiB (10%)
Language : Japanese
Default : No
Forced : No
Text
ID : 4
Format : ASS
Codec ID : S_TEXT/ASS
Codec ID/Info : Advanced Sub Station Alpha
Compression mode : Lossless
Default : Yes
Forced : No


Последний раз редактировалось: SoluSoull (2015-05-18 22:05), всего редактировалось 1 раз

Создавать темы 18-Май-2015 21:56

[Профиль]  [ЛС] 

SoluSoull ®

Стаж: 2 года 5 месяцев

Сообщений: 379

Симпатии: 452

Нда тут Гоку сделал что то новенькое, поглотил собственную генки даму, удивил так удивил

Создавать темы 18-Май-2015 22:00

[Профиль]  [ЛС] 

daniellya

Стаж: 5 лет 4 месяца

Сообщений: 338

Симпатии: 29

SoluSoull, Ты бы запостил кадр, который доказывает что Гоку-это сверх-человек, после этого удара, он еще смог сделать второго сына хD

Создавать темы 18-Май-2015 23:29

[Профиль]  [ЛС] 
Показать сообщения:    
Ответить на тему

Текущее время: 18-Авг 14:01

Часовой пояс: UTC + 5



Вы не можете начинать темы
Вы не можете отвечать на сообщения
Вы не можете редактировать свои сообщения
Вы не можете удалять свои сообщения
Вы не можете голосовать в опросах
Вы не можете прикреплять файлы к сообщениям
Вы не можете скачивать файлы