Драгонболл Зет: Фильм восьмой / Dragon Ball Z: Broly, the Legendary Super Saiyan (Ямаути Сигэясу) [Movie] [Без хардсаба] [JAP+SUB] [1993г., приключения, фэнтези BDRip] [720p]

Ответить на тему
 

SoluSoull ®

Стаж: 2 года 9 месяцев

Сообщений: 379

Симпатии: 452

Dragon Ball Z: Broly, the Legendary Super Saiyan
Драгонболл Зет: Фильм восьмой-Производство: Япония
Год выпуска: 1993
Жанр: приключения, фэнтези
Тип: полнометражный фильм, 75 мин.-Перевод:
Субтитры от Mxslive-Режиссёр: Ямаути Сигэясу
Автор оригинала: Торияма Акира
Студия: TOEI ANIMATION-Описание: Воин Саядзин Парагас прибыл на Землю в поисках законного правителя Саядзинов, Веджиты. Убедив Веджиту в своей лояльности, он просит помощи в борьбе с Легендарным Супер Саядзином, который угрожает разрушить всю галактику. В это время Гоку, узнав об угрозе нападения, тоже мчится к месту действия.-Качество: BDRip \ Формат: MKV
Тип видео: без хардсаба
Видео: AVC, 1280х720(16/9), 4268Kbps, 23.976fps, 8 bits
Аудио: AC-3, 48000Hz, 2ch, 384kbps-

Скриншоты

MI

General
Unique ID : 241514170294832820200343508939176014991 (0xB5B1EFF00A2C0D7D97F08DA77761F48F)
Complete name : F:\[RAZNEW]\Dragon Ball\сезон 2\Movie\Dragon Ball Z - Movie 08 - Broly, the Legendary Super Saiyan (Subs).mkv
Format : Matroska
Format version : Version 4 / Version 2
File size : 2.34 GiB
Duration : 1h 11mn
Overall bit rate : 4 655 Kbps
Movie name : Dragon Ball Z Movie 8: Broly - The Legendary Super Saiyan
Encoded date : UTC 2015-05-16 08:14:35
Writing application : mkvmerge v7.0.0 ('Where We Going') 64bit built on Jun 9 2014 15:16:27
Writing library : libebml v1.3.0 + libmatroska v1.4.1
Attachements : tt0843m_.TTF
DURATION : 01:11:15.180000000
NUMBER_OF_FRAMES : 588
NUMBER_OF_BYTES : 53414
_STATISTICS_WRITING_APP : mkvmerge v7.0.0 ('Where We Going') 64bit built on Jun 9 2014 15:16:27
_STATISTICS_WRITING_DATE_UT : 2015-05-16 08:14:35
_STATISTICS_TAGS : BPS DURATION NUMBER_OF_FRAMES NUMBER_OF_BYTES
Video
ID : 1
Format : AVC
Format/Info : Advanced Video Codec
Format profile : [email protected]
Format settings, CABAC : Yes
Format settings, ReFrames : 11 frames
Codec ID : V_MPEG4/ISO/AVC
Duration : 1h 11mn
Bit rate : 4 268 Kbps
Width : 1 280 pixels
Height : 720 pixels
Display aspect ratio : 16:9
Frame rate mode : Constant
Frame rate : 23.976 fps
Color space : YUV
Chroma subsampling : 4:2:0
Bit depth : 8 bits
Scan type : Progressive
Bits/(Pixel*Frame) : 0.193
Stream size : 2.10 GiB (90%)
Writing library : x264 core 56 svn-681
Encoding settings : cabac=1 / ref=8 / deblock=1:-3:-3 / analyse=0x3:0x133 / me=umh / fpel_cmp=sad / subme=6 / me-prepass=0 / brdo=1 / mixed_ref=1 / me_range=16 / chroma_me=1 / trellis=0 / 8x8dct=1 / cqm=2 / deadzone=21,11 / chroma_qp_offset=0 / threads=6 / nr=0 / decimate=1 / mbaff=0 / bframes=5 / b_pyramid=1 / b_adapt=1 / b_bias=0 / direct=1 / wpredb=1 / bime=1 / keyint=250 / keyint_min=25 / scenecut=40(pre) / rc=2pass / bitrate=4268 / ratetol=1.0 / rceq='blurCplx^(1-qComp)' / qcomp=0.60 / qpmin=10 / qpmax=51 / qpstep=4 / cplxblur=20.0 / qblur=0.5 / ip_ratio=1.40 / pb_ratio=1.30 / aq=1:0.7:15.0
Language : English
Default : Yes
Forced : No
DURATION : 01:11:57.268000000
NUMBER_OF_FRAMES : 103511
NUMBER_OF_BYTES : 2303646542
_STATISTICS_WRITING_APP : mkvmerge v7.0.0 ('Where We Going') 64bit built on Jun 9 2014 15:16:27
_STATISTICS_WRITING_DATE_UT : 2015-05-16 08:14:35
_STATISTICS_TAGS : BPS DURATION NUMBER_OF_FRAMES NUMBER_OF_BYTES
Audio
ID : 2
Format : DTS
Format/Info : Digital Theater Systems
Mode : 16
Format settings, Endianness : Big
Codec ID : A_DTS
Duration : 1h 11mn
Bit rate mode : Constant
Bit rate : 384 Kbps
Channel(s) : 2 channels
Channel positions : Front: L R
Sampling rate : 48.0 KHz
Bit depth : 16 bits
Compression mode : Lossy
Stream size : 198 MiB (8%)
Language : Japanese
Default : Yes
Forced : No
Text
ID : 3
Format : ASS
Codec ID : S_TEXT/ASS
Codec ID/Info : Advanced Sub Station Alpha
Compression mode : Lossless
Default : Yes
Forced : No


Последний раз редактировалось: SoluSoull (2015-05-18 22:17), всего редактировалось 1 раз

Создавать темы 18-Май-2015 22:14

[Профиль]  [ЛС] 

SoluSoull ®

Стаж: 2 года 9 месяцев

Сообщений: 379

Симпатии: 452

озвучку не смог найти, если есть у кого, поделитесь пожалуйста

Создавать темы 18-Май-2015 22:15

[Профиль]  [ЛС] 
Показать сообщения:    
Ответить на тему

Текущее время: 16-Дек 14:22

Часовой пояс: UTC + 5



Вы не можете начинать темы
Вы не можете отвечать на сообщения
Вы не можете редактировать свои сообщения
Вы не можете удалять свои сообщения
Вы не можете голосовать в опросах
Вы не можете прикреплять файлы к сообщениям
Вы не можете скачивать файлы