Драгонболл Зет: Фильм десятый / Dragon Ball Z: Broly - Second Coming (Ямаути Сигэясу) [Movie] [Без хардсаба] [JAP+SUB] [1994г., приключения, фэнтези BDRip] [1080p]

Ответить на тему
 

SoluSoull ®

Стаж: 2 года 7 месяцев

Сообщений: 379

Симпатии: 452

Dragon Ball Z: Broly - Second Coming
Драгонболл Зет: Фильм десятый-Производство: Япония
Год выпуска: 1994
Жанр: приключения, фэнтези
Тип: короткометражный фильм, 55 мин.-Перевод:
Субтитры от Mxslive-Режиссёр: Ямаути Сигэясу
Автор оригинала: Торияма Акира
Студия: TOEI ANIMATION-Описание: После поражения от Гоку, Броли пришлось аварийно приземлится на планету Земля и залечь в спячку, чтобы восстановить потерянные силы. Спустя 7 лет, он был пробуждён голосами Кранкса и Готена, и не смотря ни на что продолжает верить в Какарот-о, и желает отомстить.-Качество: BDRip \ Формат: MKV
Тип видео: без хардсаба
Видео: AVC, 1920х1080, 7500Kbps, 23.976fps, 8 bits
Аудио: AC-3, 48000Hz, 2ch, 384kbps-

Скриншоты

MI

General
Unique ID : 242527233959074754275399908244300362360 (0xB6750BD525B2E91585BDC7F851F1F278)
Complete name : F:\[RAZNEW]\Dragon Ball\сезон 2\Movie\Dragon Ball Z - Movie 10 - Broly Second Coming (Subs).mkv
Format : Matroska
Format version : Version 4 / Version 2
File size : 2.88 GiB
Duration : 52mn 13s
Overall bit rate : 7 886 Kbps
Movie name : Dragon Ball Z Movie 8: Broly - The Legendary Super Saiyan
Encoded date : UTC 2015-05-17 11:59:38
Writing application : mkvmerge v7.0.0 ('Where We Going') 64bit built on Jun 9 2014 15:16:27
Writing library : libebml v1.3.0 + libmatroska v1.4.1
DURATION : 00:52:09.600000000
NUMBER_OF_FRAMES : 97800
NUMBER_OF_BYTES : 150220800
_STATISTICS_WRITING_APP : mkvmerge v7.0.0 ('Where We Going') 64bit built on Jun 9 2014 15:16:27
_STATISTICS_WRITING_DATE_UT : 2015-05-17 11:59:38
_STATISTICS_TAGS : BPS DURATION NUMBER_OF_FRAMES NUMBER_OF_BYTES
Video
ID : 1
Format : AVC
Format/Info : Advanced Video Codec
Format profile : [email protected]
Format settings, CABAC : Yes
Format settings, ReFrames : 11 frames
Codec ID : V_MPEG4/ISO/AVC
Duration : 52mn 13s
Bit rate : 7 500 Kbps
Width : 1 920 pixels
Height : 1 080 pixels
Display aspect ratio : 16:9
Frame rate mode : Constant
Frame rate : 23.976 fps
Color space : YUV
Chroma subsampling : 4:2:0
Bit depth : 8 bits
Scan type : Progressive
Bits/(Pixel*Frame) : 0.151
Stream size : 2.68 GiB (93%)
Writing library : x264 core 56 svn-689
Encoding settings : cabac=1 / ref=8 / deblock=1:-3:-1 / analyse=0x3:0x112 / me=umh / subme=7 / brdo=1 / mixed_ref=1 / me_range=32 / chroma_me=1 / trellis=0 / 8x8dct=1 / cqm=2 / deadzone=21,11 / chroma_qp_offset=0 / threads=6 / nr=0 / decimate=0 / mbaff=0 / bframes=3 / b_pyramid=1 / b_adapt=1 / b_bias=0 / direct=1 / wpredb=1 / bime=1 / keyint=250 / keyint_min=25 / scenecut=40(pre) / rc=2pass / bitrate=7500 / ratetol=1.0 / rceq='blurCplx^(1-qComp)' / qcomp=0.60 / qpmin=10 / qpmax=51 / qpstep=4 / cplxblur=20.0 / qblur=0.5 / ip_ratio=1.40 / pb_ratio=1.30
Default : Yes
Forced : No
Audio
ID : 2
Format : AC-3
Format/Info : Audio Coding 3
Mode extension : CM (complete main)
Format settings, Endianness : Big
Codec ID : A_AC3
Duration : 52mn 13s
Bit rate mode : Constant
Bit rate : 384 Kbps
Channel(s) : 2 channels
Channel positions : Front: L R
Sampling rate : 48.0 KHz
Bit depth : 16 bits
Compression mode : Lossy
Delay relative to video : 2s 110ms
Stream size : 143 MiB (5%)
Default : Yes
Forced : No
Text
ID : 3
Format : UTF-8
Codec ID : S_TEXT/UTF8
Codec ID/Info : UTF-8 Plain Text
Default : Yes
Forced : No


Последний раз редактировалось: SoluSoull (2015-05-18 22:50), всего редактировалось 1 раз

Создавать темы 18-Май-2015 22:44

[Профиль]  [ЛС] 

SoluSoull ®

Стаж: 2 года 7 месяцев

Сообщений: 379

Симпатии: 452

самая смешная полнометражка)
PS: озвучку не смог найти, если есть у кого, поделитесь пожалуйста

Создавать темы 18-Май-2015 22:45

[Профиль]  [ЛС] 
Показать сообщения:    
Ответить на тему

Текущее время: 22-Окт 18:53

Часовой пояс: UTC + 5



Вы не можете начинать темы
Вы не можете отвечать на сообщения
Вы не можете редактировать свои сообщения
Вы не можете удалять свои сообщения
Вы не можете голосовать в опросах
Вы не можете прикреплять файлы к сообщениям
Вы не можете скачивать файлы