Драгонболл Зет: Фильм одиннадцатый / Dragon Ball Z: Bio-Broly (Уэда Ёсихиро) [Movie] [Без хардсаба] [JAP+SUB] [1994г., приключения, фэнтези BDRip] [1080p]

Ответить на тему
 

SoluSoull ®

Стаж: 2 года 7 месяцев

Сообщений: 379

Симпатии: 452

Dragon Ball Z: Broly - Second Coming
Драгонболл Зет: Фильм одиннадцатый-Производство: Япония
Год выпуска: 1994
Жанр: приключения, фэнтези
Тип: короткометражный фильм, 45 мин.-Перевод:
Субтитры от Mxslive-Режиссёр: Уэда Ёсихиро
Автор оригинала: Торияма Акира
Студия: TOEI ANIMATION-Описание: Броли - легендарный супер саян вновь возвращается, но уже не такой, как прежде...-Качество: BDRip \ Формат: MKV
Тип видео: без хардсаба
Видео: AVC, 1920х1080, 7000Kbps, 23.976fps, 8 bits
Аудио: AC-3, 48000Hz, 2ch, 384kbps-

Скриншоты

MI

General
Unique ID : 184039590021292755205683344849321134938 (0x8A74BC594A8D055581814EE1E3D50B5A)
Complete name : F:\[RAZNEW]\Dragon Ball\сезон 2\Movie\Dragon Ball Z - Movie 11 - Bio-Broly (Subs).mkv
Format : Matroska
Format version : Version 4 / Version 2
File size : 2.38 GiB
Duration : 46mn 36s
Overall bit rate : 7 302 Kbps
Movie name : Dragon Ball Z Movie 1 - Dead Zone (1989)
Encoded date : UTC 2015-05-18 12:02:05
Writing application : mkvmerge v7.0.0 ('Where We Going') 64bit built on Jun 9 2014 15:16:27
Writing library : libebml v1.3.0 + libmatroska v1.4.1
DURATION : 00:45:33.380000000
NUMBER_OF_FRAMES : 430
NUMBER_OF_BYTES : 24419
_STATISTICS_WRITING_APP : mkvmerge v7.0.0 ('Where We Going') 64bit built on Jun 9 2014 15:16:27
_STATISTICS_WRITING_DATE_UT : 2015-05-18 12:02:05
_STATISTICS_TAGS : BPS DURATION NUMBER_OF_FRAMES NUMBER_OF_BYTES
Video
ID : 1
Format : AVC
Format/Info : Advanced Video Codec
Format profile : [email protected]
Format settings, CABAC : Yes
Format settings, ReFrames : 3 frames
Codec ID : V_MPEG4/ISO/AVC
Duration : 46mn 36s
Bit rate : 7 000 Kbps
Width : 1 920 pixels
Height : 1 080 pixels
Display aspect ratio : 16:9
Frame rate mode : Constant
Frame rate : 23.976 fps
Color space : YUV
Chroma subsampling : 4:2:0
Bit depth : 8 bits
Scan type : Progressive
Bits/(Pixel*Frame) : 0.141
Stream size : 2.21 GiB (93%)
Writing library : x264 core 80 r1376M 3feaec2
Encoding settings : cabac=1 / ref=3 / deblock=1:0:0 / analyse=0x3:0x113 / me=hex / subme=7 / psy=1 / psy_rd=1.0:0.0 / mixed_ref=1 / me_range=16 / chroma_me=1 / trellis=1 / 8x8dct=1 / cqm=0 / deadzone=21,11 / fast_pskip=1 / chroma_qp_offset=-2 / threads=3 / sliced_threads=0 / nr=0 / decimate=1 / mbaff=0 / constrained_intra=0 / bframes=3 / b_pyramid=0 / b_adapt=1 / b_bias=0 / direct=1 / wpredb=1 / wpredp=2 / keyint=250 / keyint_min=25 / scenecut=40 / rc_lookahead=40 / rc=abr / mbtree=1 / bitrate=7000 / ratetol=1.0 / qcomp=0.60 / qpmin=10 / qpmax=51 / qpstep=4 / ip_ratio=1.40 / aq=1:1.00
Default : Yes
Forced : No
Audio
ID : 2
Format : AC-3
Format/Info : Audio Coding 3
Mode extension : CM (complete main)
Format settings, Endianness : Big
Codec ID : A_AC3
Duration : 46mn 36s
Bit rate mode : Constant
Bit rate : 384 Kbps
Channel(s) : 2 channels
Channel positions : Front: L R
Sampling rate : 48.0 KHz
Bit depth : 16 bits
Compression mode : Lossy
Stream size : 128 MiB (5%)
Default : Yes
Forced : No
Text
ID : 3
Format : UTF-8
Codec ID : S_TEXT/UTF8
Codec ID/Info : UTF-8 Plain Text
Default : Yes
Forced : No

Создавать темы 18-Май-2015 22:56

[Профиль]  [ЛС] 

SoluSoull ®

Стаж: 2 года 7 месяцев

Сообщений: 379

Симпатии: 452

озвучку не смог найти, если есть у кого, поделитесь пожалуйста

Создавать темы 18-Май-2015 22:58

[Профиль]  [ЛС] 
Показать сообщения:    
Ответить на тему

Текущее время: 23-Окт 12:55

Часовой пояс: UTC + 5



Вы не можете начинать темы
Вы не можете отвечать на сообщения
Вы не можете редактировать свои сообщения
Вы не можете удалять свои сообщения
Вы не можете голосовать в опросах
Вы не можете прикреплять файлы к сообщениям
Вы не можете скачивать файлы