Джеки в царстве женщин / Jacky au royaume des filles (Риад Саттуф) [2014, Франция, комедия, HDRip] (Dub : [Лицензия])

Ответить на тему
 

mp1988 ®

Стаж: 6 лет 8 месяцев

Сообщений: 607

Симпатии: 971

Джеки в царстве женщин / Jacky au royaume des filles
Страна: Франция
Жанр: комедия
Год выпуска: 2014
Продолжительность: 01:29:53
Перевод: Профессиональный (дублированный) [Лицензия]
Cубтитры: нет
Режиссер: Риад Саттуф
В ролях: Венсан Лакост, Шарлотта Генсбур, Дидье Бурдон, Анемон, Валери Боннетон, Мишель Хазанавичус, Ноэми Львовски, Лор Марсак, Уилльям Лебхил, Антони Сониго
Описание: В Демократической Республике Бубун, где мужчины и женщины поменялись ролями, живет Джеки, идеальный парень на выданье: он отлично готовит, скромно одевается и мечтает попасть на бал, где его обязательно заметит прекрасная Полконесса на белом коне. К своему удивлению, застенчивый жених быстро окажется в центре дворцовой интриги, но на пути к мужскому счастью его не остановят ни коварная родня, ни жестокая диктатура.-- --Качество видео: HDRip
Формат видео: AVI
Видео: XviD 1926 kb/s, 720x384
Аудио: AC3, 384 kb/s (6 ch)

MediaInfo

Общее
Полное имя : D:\FILM\Djeki.v.Czarstve.Jenschin.2014.D.avi
Формат : AVI
Формат/Информация : Audio Video Interleave
Размер файла : 1,46 Гбайт
Продолжительность : 1 ч. 29 м.
Общий поток : 2320 Кбит/сек
Название фильма : Djeki.v.Czarstve.Jenschin.2014.D.ELEKTRI4KA.uniongang.tv
Программа кодирования : VirtualDubMod 1.5.10.3 | www.virtualdub-fr.org || (build 2550/release)
Правообладатель : UNIONGANG&RUSTORRENTS
Видео
Идентификатор : 0
Формат : MPEG-4 Visual
Профиль формата : Advanced [email protected]
Параметр BVOP формата : 2
Параметр QPel формата : Нет
Параметр GMC формата : Без точки перехода
Параметр матрицы формата : Default (MPEG)
Режим смешивания : Сжатый битовый поток
Идентификатор кодека : XVID
Идентификатор кодека/Подсказка : XviD
Продолжительность : 1 ч. 29 м.
Битрейт : 1927 Кбит/сек
Ширина : 720 пикселей
Высота : 384 пикселя
Соотношение сторон : 1,85:1
Частота кадров : 24,000 кадра/сек
Цветовое пространство : YUV
Субдискретизация насыщенности : 4:2:0
Битовая глубина : 8 бит
Тип развёртки : Прогрессивная
Метод сжатия : С потерями
Бит/(Пиксели*Кадры) : 0.290
Размер потока : 1,21 Гбайт (83%)
Библиотека кодирования : XviD 73
Аудио
Идентификатор : 1
Формат : AC-3
Формат/Информация : Audio Coding 3
Расширение режима : CM (complete main)
Параметр Endianness формата : Big
Идентификатор кодека : 2000
Продолжительность : 1 ч. 29 м.
Вид битрейта : Постоянный
Битрейт : 384 Кбит/сек
Каналы : 6 каналов
Расположение каналов : Front: L C R, Side: L R, LFE
Частота : 48,0 КГц
Битовая глубина : 16 бит
Метод сжатия : С потерями
Размер потока : 247 Мбайт (17%)
Выравнивание : Разделение по промежуткам
Продолжительность промежутка : 42 мс. (1,00 видеокадр)
Время предзагрузки промежутка : 500 мс.

Скриншоты



Создавать темы 18-Май-2015 22:57

[Профиль]  [ЛС] 

Mrblack

Стаж: 6 лет 5 месяцев

Сообщений: 247

Симпатии: 52

еще один тупой кино

Создавать темы 22-Май-2015 21:01

[Профиль]  [ЛС] 
Показать сообщения:    
Ответить на тему

Текущее время: 24-Окт 10:45

Часовой пояс: UTC + 5



Вы не можете начинать темы
Вы не можете отвечать на сообщения
Вы не можете редактировать свои сообщения
Вы не можете удалять свои сообщения
Вы не можете голосовать в опросах
Вы не можете прикреплять файлы к сообщениям
Вы не можете скачивать файлы