Я не понимаю, что говорит мой муж ТВ-2 / Danna ga Nani o Itteiru ka Wakaranai Ken 2 Sureme (Нагай Симпэй) [TV] [13 из 13] [без хардсаба] [RUS(int)] [2015 г., комедия, повседневность, HDTVRip] [720p] [AniDub]

Ответить на тему
 

Азиз87 ®

Стаж: 4 года 11 месяцев

Сообщений: 752

Симпатии: 143

Я не понимаю, что говорит мой муж (тред второй) / Danna ga Nani o Itteiru ka Wakaranai Ken 2 Sureme
-
Год выпуска: 2015
Страна: Япония
Жанр: комедия, повседневность
Продолжительность: 13 эп. по 5 мин
Перевод: Любительский (двухголосый) - Ancord, Jade
Режиссер: Нагай Симпэй-Описание:
Зачем Каору, нормальной молодой женщине – современной, работающей, здравомыслящей – выходить замуж за отаку?.. ну, что тут скажешь! Любая свадьба – это всё-таки свадебное платье, а для девушки большего и не нужно.
И что с того, что муж – блогер, рецензент, социопат и нидзиконщик, и что его младший брат постоянно рисует мангу с его участием, отводя Хадзимэ роль укэ? В конце концов, у каждого свои недостатки. Давно известно, что принцев на белых ягуарах, шейхов на белых боингах и импозантных холостых директоров нефтяных холдингов не хватает на всех офисных служащих. Поэтому совет да любовь, Каору и Хадзимэ – прочного союза, взаимного снисхождения и бесперебойного интернета вашей дружной полунормальной семье!
-Качество: HDTVRip | Формат видео: MP4
Видео: x264 (8 bits), 1280х720, ~ 1 800 Kbps kbps, 23.976 fps
Аудио Russian: AAC, ~192 kbps, 48.0 KHz, 2.0 ch

Подробные тех. данные:

General
Complete name : [AniDub]_Danna_ga_Nani_wo_Itteiru_ka_Wakaranai_Ken_TV-2_[01]_[720p_x264_Aac]_[Ancord_Jade].mp4
Format : MPEG-4
Format profile : Base Media
Codec ID : isom
File size : 49.5 MiB
Duration : 3mn 30s
Overall bit rate mode : Variable
Overall bit rate : 1 974 Kbps
Encoded date : UTC 2015-04-04 17:18:33
Tagged date : UTC 2015-04-04 17:18:33
Writing application : Yamb 2.1.0.0 [http://yamb.unite-video.com]
Video
ID : 1
Format : AVC
Format/Info : Advanced Video Codec
Format profile : [email protected]
Format settings, CABAC : Yes
Format settings, ReFrames : 6 frames
Codec ID : avc1
Codec ID/Info : Advanced Video Coding
Duration : 3mn 30s
Bit rate : 1 776 Kbps
Maximum bit rate : 7 463 Kbps
Width : 1 280 pixels
Height : 720 pixels
Display aspect ratio : 16:9
Frame rate mode : Constant
Frame rate : 23.976 fps
Color space : YUV
Chroma subsampling : 4:2:0
Bit depth : 8 bits
Scan type : Progressive
Bits/(Pixel*Frame) : 0.080
Stream size : 44.6 MiB (90%)
Title : Ì
Writing library : x264 core 120 r2120 0c7dab9
Encoding settings : cabac=1 / ref=6 / deblock=1:1:1 / analyse=0x3:0x113 / me=umh / subme=8 / psy=1 / psy_rd=0.40:0.00 / mixed_ref=1 / me_range=16 / chroma_me=1 / trellis=1 / 8x8dct=1 / cqm=0 / deadzone=21,11 / fast_pskip=1 / chroma_qp_offset=-2 / threads=4 / sliced_threads=0 / nr=0 / decimate=1 / interlaced=0 / bluray_compat=0 / constrained_intra=0 / bframes=3 / b_pyramid=2 / b_adapt=2 / b_bias=0 / direct=3 / weightb=1 / open_gop=0 / weightp=2 / keyint=250 / keyint_min=23 / scenecut=40 / intra_refresh=0 / rc_lookahead=50 / rc=2pass / mbtree=1 / bitrate=1776 / ratetol=1.0 / qcomp=0.60 / qpmin=0 / qpmax=69 / qpstep=4 / cplxblur=20.0 / qblur=0.5 / vbv_maxrate=3552 / vbv_bufsize=8880 / nal_hrd=none / ip_ratio=1.40 / aq=1:0.60
Encoded date : UTC 2015-04-04 17:18:33
Tagged date : UTC 2015-04-04 17:18:33
Audio
ID : 2
Format : AAC
Format/Info : Advanced Audio Codec
Format profile : LC
Codec ID : 40
Duration : 3mn 30s
Bit rate mode : Variable
Bit rate : 192 Kbps
Maximum bit rate : 196 Kbps
Channel(s) : 2 channels
Channel positions : Front: L R
Sampling rate : 48.0 KHz
Compression mode : Lossy
Stream size : 4.82 MiB (10%)
Language : Russian
Encoded date : UTC 2015-04-04 17:18:33
Tagged date : UTC 2015-04-04 17:18:33

Скриншоты:





Последний раз редактировалось: Азиз87 (2015-07-04 00:38), всего редактировалось 7 раз(а)

Создавать темы 19-Май-2015 00:30

[Профиль]  [ЛС] 

Азиз87 ®

Стаж: 4 года 11 месяцев

Сообщений: 752

Симпатии: 143

1-7 серии. Позитив на высоте хотя и в течении 3-х минут.

Создавать темы 20-Май-2015 00:32

[Профиль]  [ЛС] 

Азиз87 ®

Стаж: 4 года 11 месяцев

Сообщений: 752

Симпатии: 143

8 серия. Приятного просмотра.

Создавать темы 26-Май-2015 14:26

[Профиль]  [ЛС] 

Азиз87 ®

Стаж: 4 года 11 месяцев

Сообщений: 752

Симпатии: 143

9-10 серии. Приятного просмотра.

Создавать темы 11-Июн-2015 00:44

[Профиль]  [ЛС] 

Азиз87 ®

Стаж: 4 года 11 месяцев

Сообщений: 752

Симпатии: 143

11 серия. Приятного просмотра.

Создавать темы 16-Июн-2015 17:04

[Профиль]  [ЛС] 

Азиз87 ®

Стаж: 4 года 11 месяцев

Сообщений: 752

Симпатии: 143

12 серия. Приятного просмотра.

Создавать темы 27-Июн-2015 00:25

[Профиль]  [ЛС] 

Азиз87 ®

Стаж: 4 года 11 месяцев

Сообщений: 752

Симпатии: 143

Релиз завершен.

Создавать темы 04-Июл-2015 00:31

[Профиль]  [ЛС] 

Топик был перенесен из форума Аниме онгоинги в форум HD, HDTVRip
SNIL

Создавать темы 04-Июл-2015 00:38

 
Показать сообщения:    
Ответить на тему

Текущее время: 23-Окт 00:15

Часовой пояс: UTC + 5



Вы не можете начинать темы
Вы не можете отвечать на сообщения
Вы не можете редактировать свои сообщения
Вы не можете удалять свои сообщения
Вы не можете голосовать в опросах
Вы не можете прикреплять файлы к сообщениям
Вы не можете скачивать файлы