Келинка Сабина / Kelinka Sabina (Нуртас Адамбаев) [2014, Казахстан, Комедия, DVDRip]

Ответить на тему
 

bahadulin ®

Стаж: 2 года 8 месяцев

Сообщений: 10

Симпатии: 10

Келинка Сабина / Kelinka Sabina
Страна: Казахстан
Жанр: Комедия
Год выпуска: 2014
Продолжительность: 01:39:42
Перевод: Не требуется
Cубтитры: нет
Оригинальная аудиодорожка: русский
Режиссер: Нуртас Адамбаев
В ролях: Нуртас Адамбаев, Айнур Ильясова, Ерлан Касымжанулы, Жан Избасар, Есжан Хамидуллин, Токжан Таханова, Алишер Орикбаев
Описание: Сабина — алматинская избалованная дочь богатых родителей. Вся ее жизнь — это ночные тусовки и европейские бренды. Давняя мечта девушки — выйти замуж за арабского шейха и уехать из Казахстана в Дубаи, чтобы жить на Jumeirah Beach. Но однажды жизнь Сабины резко меняется. И она попадает в аульский плен в поселок Жугеры. Так красавица Сабина становится женой пастуха Жанибека и казахской келин. Отныне ее новая мечта — сбежать из аульного плена.
Качество видео: DVDRip
Формат видео: AVI
Видео: XviD, 1885 Kbps, 720x352
Аудио: MP3, 2 ch, 192 Кбит/с

MediaInfo

Общее
Полное имя : D:\Фильмы\Kelinka_Sabina_tas-ix_net.avi
Формат : AVI
Формат/Информация : Audio Video Interleave
Размер файла : 1,45 Гбайт
Продолжительность : 1 ч. 39 м.
Общий поток : 2084 Кбит/сек
Видео
Идентификатор : 0
Формат : MPEG-4 Visual
Профиль формата : Advanced [email protected]
Параметр BVOP формата : Нет
Параметр QPel формата : Нет
Параметр GMC формата : Без точки перехода
Параметр матрицы формата : Default (H.263)
Идентификатор кодека : XVID
Идентификатор кодека/Подсказка : XviD
Продолжительность : 1 ч. 39 м.
Битрейт : 1885 Кбит/сек
Ширина : 720 пикселей
Высота : 352 пикселя
Соотношение сторон : 2,045
Частота кадров : 25,000 кадров/сек
Цветовое пространство : YUV
Субдискретизация насыщенности : 4:2:0
Битовая глубина : 8 бит
Тип развёртки : Прогрессивная
Метод сжатия : С потерями
Бит/(Пиксели*Кадры) : 0.297
Размер потока : 1,31 Гбайт (90%)
Библиотека кодирования : XviD 62
Аудио
Идентификатор : 1
Формат : MPEG Audio
Версия формата : Version 1
Профиль формата : Layer 3
Идентификатор кодека : 55
Идентификатор кодека/Подсказка : MP3
Продолжительность : 1 ч. 39 м.
Вид битрейта : Постоянный
Битрейт : 192 Кбит/сек
Каналы : 2 канала
Частота : 44,1 КГц
Метод сжатия : С потерями
Размер потока : 137 Мбайт (9%)
Выравнивание : Разделение по промежуткам
Продолжительность промежутка : 80 мс. (2,00 видеокадра)
Библиотека кодирования : LAMELAME_MAJOR_VERSI

Скриншоты





Последний раз редактировалось: bahadulin (2015-05-20 01:03), всего редактировалось 3 раз(а)

Создавать темы 19-Май-2015 10:22

[Профиль]  [ЛС] 

bahadulin ®

Стаж: 2 года 8 месяцев

Сообщений: 10

Симпатии: 10

мой первый релиз, если что не так пишите, исправлю. раздаю днем как получиться, ночью с 23.30 до 8.00 все 4 мб/с ваши.

Создавать темы 19-Май-2015 19:04

[Профиль]  [ЛС] 

Каротажник

Стаж: 4 года 2 месяца

Сообщений: 195

Симпатии: 211

bahadulin, скриншоты не соответствуют Тех,данным Видео: XviD, 1885 Kbps, 720x352
у вас 600х293

Создавать темы 19-Май-2015 19:46

[Профиль]  [ЛС] 

Davron1402

Стаж: 3 года 11 месяцев

Сообщений: 136

Симпатии: 122

Нуртас Адамбаев режиссер, продюсер и актер играл женских роль Сабиной
Хорошая комедия спасибо за релиз

Создавать темы 24-Май-2015 00:24

[Профиль]  [ЛС] 

black_drow

Стаж: 7 лет 3 месяца

Сообщений: 58

Симпатии: 8

люди дайте раздачу

Создавать темы 23-Окт-2015 16:27

[Профиль]  [ЛС] 

SkoroXod

Стаж: 2 года 3 месяца

Сообщений: 99

Симпатии: 78

Огромное спасибо!!! ay
Давно так не смеялся. Уморительная комедия. Фильм вообще шикарный. Очень много юмора, задора. Отличная современная семейная комедия.
10 баллов!

Создавать темы 24-Окт-2015 22:50

[Профиль]  [ЛС] 

mantana92

Стаж: 4 года 6 месяцев

Сообщений: 16

дайте до качать не много осталось))

Создавать темы 01-Фев-2016 20:53

[Профиль]  [ЛС] 

Johnson FT

Стаж: 3 года 10 месяцев

Сообщений: 2

Симпатии: 1

Возобновите раздачу на фильм "Келинка Сабина" пожалуйста очень посмотреть хочется!

Создавать темы 26-Апр-2016 17:44

[Профиль]  [ЛС] 

Johnson FT

Стаж: 3 года 10 месяцев

Сообщений: 2

Симпатии: 1

Привет! Возобновите раздачу на фильм "Келинка Сабина" пожалуйста очень посмотреть хочется!

Создавать темы 26-Апр-2016 17:44

[Профиль]  [ЛС] 

sladkiy.bubalex

Стаж: 1 год 11 месяцев

Сообщений: 5

залейте часть пожалуйста

Создавать темы 12-Июн-2016 00:33

[Профиль]  [ЛС] 
Показать сообщения:    
Ответить на тему

Текущее время: 18-Дек 02:32

Часовой пояс: UTC + 5



Вы не можете начинать темы
Вы не можете отвечать на сообщения
Вы не можете редактировать свои сообщения
Вы не можете удалять свои сообщения
Вы не можете голосовать в опросах
Вы не можете прикреплять файлы к сообщениям
Вы не можете скачивать файлы