Драгонболл Зет: OVA / Dragon Ball Z Gaiden: - Plan to destroy the Saiya-jins (Ямаути Сигэясу) [OVA][2 из 2][без хардсаба][JAP+SUB][1993 г., приключения, комедия, фэнтези, сёнэн, DVDRip] [HWP]

Ответить на тему
 

daniellya ®

Стаж: 5 лет 8 месяцев

Сообщений: 338

Симпатии: 29

Драгонболл Зет: OVA / Dragon Ball Z Gaiden: - Plan to destroy the Saiya-jins-- Год выпуска: 1993
Страна: Япония
Студия: Studio Pierrot
Жанр: приключения, комедия, фэнтези, сёнэн
Продолжительность: 2 x 30min
Перевод: Субтитры
Русские субтитры: есть
Хардсаб: нет
-Описание: Давным-давно на Планете Веджита существовали 2 расы: Сайяджины и Тсуфураджины (Tsufurus). Будучи намного более развитой и сильной расой, Сайяджины уничтожили Тсуфурадзинов. Доктор Раичи - единственный выживший Тсуфураджин (Tsufurujin) и его единственная цель - месть выжившим Саяджинам: Гоку и Веджите. При помощи своей смертоносной машины, испускающей десторн газ, сумасшедший доктор собирается уничтожить все живое на Земле. У воинов Зет в запасе всего 72 часа, для того, чтобы найти и уничтожить доктора Раичи.-Качество: DVDRip
Формат: AVI
Видео кодек: XviD
Аудио кодек: MPEG Audio
Видео: 640x480; 4/3; 1477Kbps
Аудио: MP3; 128Kbps; 48KHz; 2ch-

Список эпизодов

1. Plan to destroy the Saiya-jins OAV 1
2. Plan to destroy the Saiya-jins OAV 2
-

Подробные тех. данные

General
Complete name : D:\Down\DBZ - 00 - Plan to destroy the Saiya-jins OAV\Plan to destroy the Saiya-jins OAV 1.avi
Format : AVI
Format/Info : Audio Video Interleave
File size : 345 MiB
Duration : 30mn 6s
Overall bit rate : 1 605 Kbps
Writing application : VirtualDubMod 1.5.10.2 (build 2540/release)
Writing library : VirtualDubMod build 2540/release
Video
ID : 0
Format : MPEG-4 Visual
Format profile : [email protected]
Format settings, BVOP : 2
Format settings, QPel : No
Format settings, GMC : No warppoints
Format settings, Matrix : Default (H.263)
Codec ID : XVID
Codec ID/Hint : XviD
Duration : 30mn 6s
Bit rate : 1 467 Kbps
Width : 640 pixels
Height : 480 pixels
Display aspect ratio : 4:3
Frame rate : 23.976 fps
Color space : YUV
Chroma subsampling : 4:2:0
Bit depth : 8 bits
Scan type : Progressive
Compression mode : Lossy
Bits/(Pixel*Frame) : 0.199
Stream size : 316 MiB (91%)
Writing library : XviD 1.0.0 Beta2.5 (UTC 2003-12-18)
Audio
ID : 1
Format : MPEG Audio
Format version : Version 1
Format profile : Layer 3
Mode : Joint stereo
Mode extension : MS Stereo
Codec ID : 55
Codec ID/Hint : MP3
Duration : 30mn 6s
Bit rate mode : Constant
Bit rate : 128 Kbps
Channel(s) : 2 channels
Sampling rate : 48.0 KHz
Compression mode : Lossy
Stream size : 27.6 MiB (8%)
Alignment : Split accross interleaves
Interleave, duration : 42 ms (1.00 video frame)
Interleave, preload duration : 500 ms

Скриншоты

-Примечание: Овашку делали по одноименной игре в сокращённом варианте.


Последний раз редактировалось: daniellya (2015-05-19 18:31), всего редактировалось 1 раз

Создавать темы 19-Май-2015 12:44

[Профиль]  [ЛС] 

daniellya ®

Стаж: 5 лет 8 месяцев

Сообщений: 338

Симпатии: 29

SNIL, пжл, скинь сюда мне код для вставки, чтобы я потом сам вставлял и больше не мучился, в темах ток старые варианты оформления (((

Создавать темы 19-Май-2015 15:26

[Профиль]  [ЛС] 
Показать сообщения:    
Ответить на тему

Текущее время: 15-Дек 05:31

Часовой пояс: UTC + 5



Вы не можете начинать темы
Вы не можете отвечать на сообщения
Вы не можете редактировать свои сообщения
Вы не можете удалять свои сообщения
Вы не можете голосовать в опросах
Вы не можете прикреплять файлы к сообщениям
Вы не можете скачивать файлы