Драгонболл БП (третий сезон) / Dragon Ball GT (Касай Осаму) [TV][64 из 64][Movie][1 из 1][без хардсаба][JAP,ENG+SUB][1996 г., фантастика, боевик, фэнтези, приключения, мультфильм, DVDRip]

Ответить на тему
 

daniellya ®

Стаж: 5 лет 8 месяцев

Сообщений: 338

Симпатии: 29

Драконий жемчуг БП / Dragon Ball GT-- Год выпуска: 1996
Страна: Япония
Жанр: фантастика, боевик, фэнтези, приключения, мультфильм
Продолжительность: 20 минут серия
Количество серий: 64-Название: Dragon Ball GT: A Hero's Legacy
Количество фильмов: 1
Продолжительность: 43 минуты
Год: 1997
Описание: Недалёкое будущее, точнее 100 лет спустя с момента последней арки ГТ. Большинство знакомых нам персонажей умрёт, кроме уже бабушки Пан, которая растит своего внука Сон Гоку Младшего, названного в честь своего прапрапрадедушки. В отличие от своего предка, нынешний Гоку слаб, но ради спасения своей бабушки готов отправиться в далёкое и опасное путешествие из своего города в гору Паозу...
Эпизод транслировался между 41 и 42 сериями ГТ.-Перевод: Субтитры
Русские субтитры: есть
Язык звуковой дорожки: японский, английский
Хардсаб: нет
Софтсаб: русские
Режиссер: Касай Осаму
Внимание: В сериях отсутствует опенинги и эндинги. Желательно смотреть через MPC-плеер, так как могут возникнуть проблемы с переключением звуковой дорожки, изображением или с чтением субтитров (не всегда и не у всех).-Описание:
Что-то случилось в Bird Studio. Может сценарист (а манга-то уже кончилась) аниме пересмотрел, может мужчины-сейю нужного возраста не нашлось, то ли продолжать стало дальше некуда... Но Гоку решили вновь сделать маленьким. Примерно ровесником собственной внучки.
И все снова. Но на Земле для такой команды слишком тесно. Для них и Драгонболлы специальные нарисовали - Космические - со звездочками другого цвета. И разлетаются они теперь не по Земле, а по всей галактике. А там вам миры на любой вкус - и киберпанковские и фентезийные и... Впрочем любые.
В довершении всего Драгонболлы отказываются выполнять желания, чернея и превращаясь в 7 злых драконов. Оказывается у любой вещи есть терпение. Но нельзя его испытывать. Это чревато очередным Апокалипсисом.
И снова всплывает легенда о Супер Сайяджины. И вновь тяжелые будни Вечного Борца.-Качество: DVDRip
Формат: OGM
Видео кодек: XviD
Аудио кодек: OGG Vorbis
Видео: XVID 640x480 23.98fps 1363 Kbps
Аудио: Vorbis 48000Hz stereo 128 Kbps-

Подробные тех. данные сериала

File size : 231 MiB
PlayTime : 19mn 36s
Bit rate : 1648 Kbps
Video
Codec : XviD
Codec/Family : MPEG-4
Codec/Info : XviD project
PlayTime : 19mn 35s
Bit rate : 1363 Kbps
Width : 640 pixels
Height : 480 pixels
Display Aspect ratio : 4/3
Frame rate : 23.976 fps
Bits/(Pixel*Frame) : 0.185
Audio
Codec : Vorbis
Codec settings/Floor : 1
PlayTime : 19mn 36s
Bit rate : 128 Kbps
Channel(s) : 2 channels
Sampling rate : 48 KHz
Language : japanese
Audio
Codec : Vorbis
Codec settings/Floor : 1
PlayTime : 19mn 36s
Bit rate : 128 Kbps
Channel(s) : 2 channels
Sampling rate : 48 KHz
Language : english

Подробные тех. данные мувика

General
Format : MPEG-4
Format profile : Base Media / Version 1
Codec ID : mp41
File size : 685 MiB
Duration : 43mn 21s
Overall bit rate : 2 208 Kbps
Encoded date : UTC 2006-02-17 19:32:29
Tagged date : UTC 2006-02-17 19:32:29
Video #3
ID : 3
Format : MPEG-4 Visual
Format profile : [email protected]
Format settings, BVOP : Yes
Format settings, QPel : No
Format settings, GMC : No warppoints
Format settings, Matrix : Default (H.263)
Codec ID : 20
Duration : 43mn 21s
Bit rate mode : Variable
Bit rate : 2 031 Kbps
Maximum bit rate : 4 201 Kbps
Width : 704 pixels
Height : 528 pixels
Display aspect ratio : 4:3
Frame rate mode : Constant
Frame rate : 29.970 fps
Resolution : 24 bits
Colorimetry : 4:2:0
Scan type : Progressive
Bits/(Pixel*Frame) : 0.182
Stream size : 630 MiB (92%)
Writing library : em4v 4.1.6.5
Language : English
Encoded date : UTC 2006-02-17 19:32:29
Tagged date : UTC 2006-02-17 19:32:29
Audio #4
ID : 4
Format : AAC
Format/Info : Advanced Audio Codec
Format version : Version 4
Format profile : LC
Format settings, SBR : No
Codec ID : 40
Duration : 43mn 21s
Bit rate mode : Variable
Bit rate : 79.6 Kbps
Maximum bit rate : 128 Kbps
Channel(s) : 2 channels
Channel positions : L R
Sampling rate : 44.1 KHz
Resolution : 16 bits
Stream size : 24.7 MiB (4%)
Title : Nero Digital Audio 2-ch Engli
Language : English
Encoded date : UTC 2006-02-17 19:32:29
Tagged date : UTC 2006-02-17 19:32:29
Audio #5
ID : 5
Format : AAC
Format/Info : Advanced Audio Codec
Format version : Version 4
Format profile : LC
Format settings, SBR : No
Codec ID : 40
Duration : 43mn 21s
Bit rate mode : Variable
Bit rate : 79.6 Kbps
Maximum bit rate : 142 Kbps
Channel(s) : 2 channels
Channel positions : L R
Sampling rate : 44.1 KHz
Resolution : 16 bits
Stream size : 24.7 MiB (4%)
Title : Nero Digital Audio 2-ch Japane
Language : Japanese
Encoded date : UTC 2006-02-17 19:32:29
Tagged date : UTC 2006-02-17 19:32:29
Text #6
ID : 6
Format : VobSub
Codec ID : subp
Codec ID/Info : The same subtitle format used on DVDs
Duration : 41mn 31s
Bit rate mode : Variable
Bit rate : 4 203 bps
Stream size : 1.25 MiB (0%)
Title : Unspecified
Language : English
Encoded date : UTC 2006-02-17 19:32:29
Tagged date : UTC 2006-02-17 19:32:29
Text #7
ID : 7
Format : VobSub
Codec ID : subp
Codec ID/Info : The same subtitle format used on DVDs
Duration : 43mn 2s
Bit rate mode : Variable
Bit rate : 3 146 bps
Stream size : 992 KiB (0%)
Title : Unspecified
Language : English
Encoded date : UTC 2006-02-17 19:32:29
Tagged date : UTC 2006-02-17 19:32:29

Скриншоты



Последний раз редактировалось: daniellya (2015-05-20 20:16), всего редактировалось 1 раз

Создавать темы 19-Май-2015 19:46

[Профиль]  [ЛС] 

daniellya ®

Стаж: 5 лет 8 месяцев

Сообщений: 338

Симпатии: 29

http://img.xd.uz/images/2015/05/19/FRQozNLT6.jpg
Это БП и я не знаю что делать
Утром или чуть позже попытаюсь настроить свой юторрент, после шаманства стал создавать свои файлы, но весят 2 метра (((

Создавать темы 19-Май-2015 23:19

[Профиль]  [ЛС] 

daniellya ®

Стаж: 5 лет 8 месяцев

Сообщений: 338

Симпатии: 29

upd. ДААААААААААААААААААААААААА У МЕНЯ ПОЛУЧИЛОСЬ

Создавать темы 20-Май-2015 20:19

[Профиль]  [ЛС] 

daniellya ®

Стаж: 5 лет 8 месяцев

Сообщений: 338

Симпатии: 29

Снил, удаляй нафиг, кто просил с андабом-не брал, а все пошли зашквариваться об рудаб Соли, нафиг жить с вашими вкусами.

Создавать темы 31-Май-2015 22:37

[Профиль]  [ЛС] 
Показать сообщения:    
Ответить на тему

Текущее время: 12-Дек 20:56

Часовой пояс: UTC + 5



Вы не можете начинать темы
Вы не можете отвечать на сообщения
Вы не можете редактировать свои сообщения
Вы не можете удалять свои сообщения
Вы не можете голосовать в опросах
Вы не можете прикреплять файлы к сообщениям
Вы не можете скачивать файлы