Ромео и Джульетта / Romeo & Juliet (Карло Карлеи) [2013, Драма, Мелодрама, История, BDRip]

Ответить на тему
 

akmal-19-66 ®

Стаж: 2 года 6 месяцев

Сообщений: 23

Симпатии: 120

Ромео и Джульетта / Romeo & Juliet
Страна: Великобритания Италия Швейцария
Жанр: Драма, Мелодрама, История
Год выпуска: 2013
Продолжительность: 01:53:25-Перевод: Профессиональный (дублированный)
Cубтитры: нет
Режиссер: Карло Карлеи-В ролях: Дуглас Бут, Хейли Стайнфелд, Дэмиэн Льюис, Коди Смит-МакФи, Эд Вествик, Пол Джаматти, Томас Арана, Наташа МакЭлхоун, Стеллан Скарсгард, Лесли Мэнвилл-Описание: Верона. Эпоха Раннего Возрождения. Юноша и девушка из враждующих семей влюбляются друг в друга. Рок не дает им быть вместе. Лишь смерть на пике запретной страсти помогает Ромео и Джульетте спасти свою любовь.-Доп. информация:
Сценарий: Джулиан Феллоуз, Уильям Шекспир.
Продюсер: Саймон Босанкет, Лоуренс Элман, Джулиан Феллоуз.
Оператор: Дэвид Тэттерсолл.
Композитор: Абель Коженёвски.
Художник: Тонино Дзера, Джанпаоло Рифино, Армандо Савойя.
Монтаж: Питер Хонесс.
Сборы в России:$917 566
Зрители: Россия 147.6 тыс., Украина 32.2 тыс., Португалия 3.1 тыс.
Премьера (мир):24 сентября 2013, ...
Премьера (РФ): 17 октября 2013, «Вольга»
Рейтинг ВКИП: Зрителям, достигшим 12 лет-Качество видео: BDRip
Формат видео: MKV-Видео: H264, 1024x424, 1859 Kb/s, 25.00fps
Аудио: AC3, 448 kb/s, 6ch

MediaInfo

General
Complete name : D:\Kino\Romeo.and.Juliet.2013.mkv
Format : Matroska
File size : 2.18 GiB
Duration : 1h 53mn
Overall bit rate : 2 748 Kbps
Movie name : Romeo.and.Juliet .2013.D.BDRip.(AVC)
Encoded date : UTC 2013-12-20 03:30:51
Writing application : mkvmerge v6.6.0 ('The Edge Of The In Between') built on Dec 1 2013 17:55:00
Writing library : libebml v1.3.0 + libmatroska v1.4.1
Video
ID : 1
Format : AVC
Format/Info : Advanced Video Codec
Format profile : [email protected]
Format settings, CABAC : Yes
Format settings, ReFrames : 11 frames
Muxing mode : Container [email protected]
Codec ID : V_MPEG4/ISO/AVC
Duration : 1h 53mn
Bit rate : 2 300 Kbps
Width : 1 024 pixels
Height : 424 pixels
Display aspect ratio : 2.40:1
Frame rate : 25.000 fps
Color space : YUV
Chroma subsampling : 4:2:0
Bit depth : 8 bits
Scan type : Progressive
Bits/(Pixel*Frame) : 0.212
Stream size : 1.78 GiB (82%)
Title : Romeo.and.Juliet .2013.D.BDRip.(AVC).by.StarbirS
Writing library : x264 core 138 r2358 9e941d1
Encoding settings : cabac=1 / ref=11 / deblock=1:-3:-3 / analyse=0x3:0x133 / me=umh / subme=10 / psy=1 / psy_rd=1.00:0.00 / mixed_ref=1 / me_range=32 / chroma_me=1 / trellis=2 / 8x8dct=1 / cqm=0 / deadzone=21,11 / fast_pskip=0 / chroma_qp_offset=-2 / threads=6 / lookahead_threads=1 / sliced_threads=0 / nr=0 / decimate=1 / interlaced=0 / bluray_compat=0 / constrained_intra=0 / bframes=8 / b_pyramid=2 / b_adapt=2 / b_bias=0 / direct=3 / weightb=1 / open_gop=1 / weightp=2 / keyint=250 / keyint_min=25 / scenecut=40 / intra_refresh=0 / rc_lookahead=40 / rc=2pass / mbtree=1 / bitrate=2300 / ratetol=1.0 / qcomp=0.60 / qpmin=10 / qpmax=51 / qpstep=4 / cplxblur=20.0 / qblur=0.5 / ip_ratio=1.40 / aq=1:1.00
Audio
ID : 2
Format : AC-3
Format/Info : Audio Coding 3
Mode extension : CM (complete main)
Codec ID : A_AC3
Duration : 1h 53mn
Bit rate mode : Constant
Bit rate : 448 Kbps
Channel(s) : 6 channels
Channel positions : Front: L C R, Side: L R, LFE
Sampling rate : 48.0 KHz
Stream size : 363 MiB (16%)
Title : Дублированный (BD RUS)
Language : Russian

Скриншоты






Последний раз редактировалось: akmal-19-66 (2015-05-19 21:16), всего редактировалось 2 раз(а)

Создавать темы 19-Май-2015 20:53

[Профиль]  [ЛС] 

Топик был перенесен из форума Фильмы за 2010-2013 в форум HD-AVC
LUKA

Создавать темы 19-Май-2015 21:12

 

Каротажник

Стаж: 4 года 1 месяц

Сообщений: 195

Симпатии: 211

akmal-19-66, поправил шапку вперед оформляйте по правилам

Создавать темы 19-Май-2015 21:17

[Профиль]  [ЛС] 
Показать сообщения:    
Ответить на тему

Текущее время: 18-Ноя 05:55

Часовой пояс: UTC + 5



Вы не можете начинать темы
Вы не можете отвечать на сообщения
Вы не можете редактировать свои сообщения
Вы не можете удалять свои сообщения
Вы не можете голосовать в опросах
Вы не можете прикреплять файлы к сообщениям
Вы не можете скачивать файлы