Грязная политика / Dirty Politics (К.С. Бокадиа) [2015, Индия, драма, мелодрама, WEB-DLRip] (DVO) (Sub Rus)

Ответить на тему
 

Davron1402 ®

Стаж: 3 года 9 месяцев

Сообщений: 136

Симпатии: 122

Грязная политика / Dirty Politics- Страна: Индия
Жанр: драма, мелодрама
Год выпуска: 2015
Продолжительность: 02:11:57
Перевод: Любительский (двухголосый закадровый)
Cубтитры: русские (на песни)
Режиссер: К.С. Бокадиа
В ролях: Анупам Кхер, Атул Кулкарни, Ом Пури, Ашутош Рана, Насируддин Шах, Малика Шерават, Джеки Шрофф, Сушант Сингх, Раджпал Ядав

Описание: В политике, как и на войне, все средства хороши. С такими убеждениями, глава партии Динанатх очищает себе пути к политическому успеху всеми правдами и неправдами. Его сообщники - Мухтар и Даял ни перед чем не остановятся, чтобы расчистить дорогу перед своим лидером, пока на их пути не появляется некая Анокхи Деви, которая тоже не прочь занять место чуть ли не самого главного министра. Она бросает вызов лидеру партии, даже не ведая о том, чем всё это ей обернётся. Гонка началась, ставки высоки, отступать уже некуда. Условие одно - завоевать любовь народа. И лишь один человек доберётся до финиша...
-Качество видео: WEB-DLRip
Формат видео: mp4 (MPEG-4)
Видео: AVC, 720 x 480 (3:2), 23.976 fps, 1 154 Kbps
Аудио: AAC, 44.1 KHz, 2 channels, 152 Kbps- 

MediaInfo

Имя файла: Грязная политика.mp4
Формат файла: .mp4 (MPEG-4)
Размер файла: 1.21 GB
Длительность: 2h 11mn
Навигация по главам: Нет
Bitrate (все потоки): 1 311 Kbps
Тип битрейта (все потоки): Variable
Название: Грязная политика
Тип потока: Видео
Длительность: 02:11:57
Кодек: AVC
Кодек/Профиль: [email protected]
Кодек/ID: avc1
Кодек/CABAC: No
Кодек/ReFrames: 1 frame
Размеры изображения: 720 x 480 (3:2)
Частота кадров: 23.976 fps
Размер потока: 1.06 GiB (88%)
Битрейт: 1 154 Kbps
Стандарт: NTSC
Цветовое пространство: YUV
Тип развёртки: Progressive
Глубина: 8 bits
Тип потока: Звук #1
Длительность: 02:11:57.169
Кодек: AAC
Кодек/Профиль: LC
Кодек/ID: 40
Частота дискретизации: 44.1 KHz
Каналов: 2 channels
Битрейт: 152 Kbps
Битрейт/тип: Variable
Размер потока: 143 MiB (12%)
Метод сжатия: Lossy

Скриншоты




Создавать темы 20-Май-2015 01:19

[Профиль]  [ЛС] 
Показать сообщения:    
Ответить на тему

Текущее время: 18-Окт 08:50

Часовой пояс: UTC + 5



Вы не можете начинать темы
Вы не можете отвечать на сообщения
Вы не можете редактировать свои сообщения
Вы не можете удалять свои сообщения
Вы не можете голосовать в опросах
Вы не можете прикреплять файлы к сообщениям
Вы не можете скачивать файлы