Супер бабушка / Super Nani (Индра Кумар / Indra Kumar) [2014, Индия, Мелодрама, комедия, приключения, Web-DLRip] (DVO) (Sub Rus)

Ответить на тему
 

Davron1402 ®

Стаж: 3 года 7 месяцев

Сообщений: 136

Симпатии: 122

Супер бабушка / Super Nani- Страна: Индия
Жанр: Мелодрама, комедия, приключения
Год выпуска: 2014
Продолжительность: 02:12:59
Перевод: Любительский (двухголосый закадровый)
Cубтитры: русские (на песни)
Режиссер: Индра Кумар / Indra Kumar
В ролях: Рекха, Шарман Джоши, Рандхир Капур, Анупам Кхер, Раджеш Кумар, Швета Кумар, Шрия Нарайан
Описание: Бхарти Бхатия - традиционная индийская женщина, которая всю свою жизнь посвятила воспитанию детей и довольству своего мужа. Но для них, её место было не в их сердцах, а на кухне. Её доброту они воспринимали как должное и не спешили отвечать взаимностью. Всё бы продолжалось до тех пор, пока в гости не нагрянул внук Бхарти - Манн, парень, выросший в Америке, но глубоко чтящий традиции и уважение к старшим. Видя ситуацию в семье бабушки, юноша решает её исправить, впустив в ход свою смекалку и находчивость...-Качество видео: Web-DLRip
Формат видео: AVI
Видео: MPEG-4 Visual, 720 x 304 (2.35:1), 24.000 fps, 1 426 Kbps
Аудио: MPEG Audio, 48.0 KHz, 2 channels, 128 Kbps-

MediaInfo

Имя файла: Super.Babushka.2014.WEB-DLRip.XviD.Kolobok-soso4eg.avi
Формат файла: .avi (AVI)
Размер файла: 1.45 GB
Длительность: 2h 12mn
Навигация по главам: Нет
Bitrate (все потоки): 1 564 Kbps
Название: Super.Nani.2014.WEB-DLRip.XviD.Kolobok-soso4eg
Тип потока: Альбом
Тип потока: Видео
Длительность: 02:12:59
Кодек: MPEG-4 Visual
Кодек/Профиль: Advanced [email protected]
Кодек/ID: XVID
Размеры изображения: 720 x 304 (2.35:1)
Частота кадров: 24.000 fps
Размер потока: 1.33 GiB (91%)
Битрейт: 1 426 Kbps
Библиотека кодирования: XviD 1.2.1 (UTC 2008-12-04)
Цветовое пространство: YUV
Тип развёртки: Progressive
Глубина: 8 bits
Тип потока: Звук #1
Длительность: 02:12:59.088
Кодек: MPEG Audio
Кодек/Профиль: Layer 3
Кодек/ID: 55
Частота дискретизации: 48.0 KHz
Каналов: 2 channels
Битрейт: 128 Kbps
Битрейт/тип: Constant
Размер потока: 122 MiB (8%)
Метод сжатия: Lossy

Скриншоты




Создавать темы 20-Май-2015 13:04

[Профиль]  [ЛС] 

Davron1402 ®

Стаж: 3 года 7 месяцев

Сообщений: 136

Симпатии: 122

Берегите бабушки, они дорогие от золоте

Создавать темы 20-Май-2015 20:31

[Профиль]  [ЛС] 
Показать сообщения:    
Ответить на тему

Текущее время: 19-Авг 05:03

Часовой пояс: UTC + 5



Вы не можете начинать темы
Вы не можете отвечать на сообщения
Вы не можете редактировать свои сообщения
Вы не можете удалять свои сообщения
Вы не можете голосовать в опросах
Вы не можете прикреплять файлы к сообщениям
Вы не можете скачивать файлы