Моя девушка – зомби / Burying the Ex (Джо Данте) [2014, США, ужасы, комедия, DVDRip]

Ответить на тему
 

akmal-19-66 ®

Стаж: 2 года 6 месяцев

Сообщений: 23

Симпатии: 120

Моя девушка – зомби / Burying the Ex
-Страна: США
Жанр: ужасы, комедия
Год выпуска: 2014
Продолжительность: 01:26:15-Перевод: Любительский (двухголосый закадровый)[ColdFilm]
Cубтитры: нет
Режиссер: Джо Данте-В ролях: Антон Ельчин, Эшли Грин, Александра Даддарио, Оливер Купер, Озиома Акага, Марк Алан Браун, Эрика Боуи, Гэбриэлль Кристиан, Арчи Хан, Томоко Карина-Описание: Фильм рассказывает о Максе и Эвелин, отношения которых сильно портятся после того, как они начинают жить вместе. Макс обнаруживает, что Эвелин — упрямая и привыкшая всех контролировать и всеми командовать телка, но боится разрывать с ней отношения. Судьба помогает ему в этой сложной жизненной ситуации: вследствие нелепой случайности Эвелин погибает, и Макс начинает жить полной жизнью. Вскоре он знакомится с Оливией и даже готовится начать с ней совместную жизнь, но Эвелин решает восстать из могилы и вернуть своего бойфренда любой ценой, даже если для этого ей придется его самого превратить в зомби.-Качество видео: DVDRip
Формат видео: AVI-Видео: 1674 kb/s, 720x304
Аудио: MP3, 192 kb/s (2 ch)

MediaInfo

General
Complete name : E:\download\Zombie.2014.L2.DVDRip.avi
Format : AVI
Format/Info : Audio Video Interleave
Format profile : OpenDML
File size : 1.15 GiB
Duration : 1h 26mn
Overall bit rate : 1 908 Kbps
Writing application : Lavf54.63.104
Video
ID : 0
Format : xvid
Codec ID : xvid
Duration : 1h 26mn
Bit rate : 1 700 Kbps
Width : 720 pixels
Height : 304 pixels
Display aspect ratio : 2.35:1
Frame rate : 23.976 fps
Bits/(Pixel*Frame) : 0.324
Stream size : 1.02 GiB (89%)
Audio
ID : 1
Format : MPEG Audio
Format version : Version 1
Format profile : Layer 3
Mode : Joint stereo
Mode extension : MS Stereo
Codec ID : 55
Codec ID/Hint : MP3
Duration : 1h 26mn
Bit rate mode : Constant
Bit rate : 192 Kbps
Channel(s) : 2 channels
Sampling rate : 48.0 KHz
Compression mode : Lossy
Stream size : 118 MiB (10%)
Alignment : Aligned on interleaves
Interleave, duration : 24 ms (0.58 video frame)
Writing library : LAME3.99.5

Скриншоты






Последний раз редактировалось: akmal-19-66 (2015-05-21 22:01), всего редактировалось 3 раз(а)

Создавать темы 21-Май-2015 18:18

[Профиль]  [ЛС] 

Каротажник

Стаж: 4 года 1 месяц

Сообщений: 195

Симпатии: 211

akmal-19-66, оформите по шаблону
вот https://tas-ix.net/viewtopic.php?t=5534
добавьте Медиа Инфо

Создавать темы 21-Май-2015 21:47

[Профиль]  [ЛС] 
Показать сообщения:    
Ответить на тему

Текущее время: 25-Ноя 14:38

Часовой пояс: UTC + 5



Вы не можете начинать темы
Вы не можете отвечать на сообщения
Вы не можете редактировать свои сообщения
Вы не можете удалять свои сообщения
Вы не можете голосовать в опросах
Вы не можете прикреплять файлы к сообщениям
Вы не можете скачивать файлы