Удар / Kick (Саджид Надиадвала) [2014, Индия, боевик, триллер, мелодрама, комедия, HDRip] (MVO) (Sub Rus)

Ответить на тему
 

akmal-19-66 ®

Стаж: 2 года 5 месяцев

Сообщений: 23

Симпатии: 120

Удар / Kick
Страна: Индия
Жанр: боевик, триллер, мелодрама, комедия
Год выпуска: 2014
Продолжительность: 02:26:49-Перевод: Любительский (многоголосый закадровый)
Cубтитры: русские
Оригинальная аудиодорожка: Индия-Режиссер: Саджид Надиадвала-В ролях: Салман Кхан, Жаклин Фернандес, Навазуддин Сиддикуи, Рандип Худа, Митхун Чакраборти, Арчана Пуран Сингх, Сумона Чакраварти, Санджай Мишра, Саурабх Шукла, Партх Акеркар,-Описание: Адреналиновый наркоман расстается с девушкой после бурного романа и становится вором. Вскоре он обнаруживает, что его преследует офицер полиции, а сам он ввязался в борьбу за сферы влияния с местным гангстером.-Доп. информация: Cценарий: Раджат Арора, Keith Gomes, Саджид Надиадвала
Продюсер: Саджид Надиадвала, Rakesh Madhotra, Nijoo Mawa
Оператор: Аянанка Бозе
Композитор: Anjjan Bhattacharya, Джулиус Пакьям, Химеш Решаммия
Сборы: в США $2 472 695
Премьера (мир): 25 июля 2014-Качество видео: HDRip
Формат видео: AVI-Видео: Xvid 720x304 23.98fps
Аудио: Dolby AC3 48000Hz 6ch 448kbps
Аудио 2: Dolby AC3 48000Hz stereo 224kbps

MediaInfo

General
Complete name : E:\download\strannaya\Kick.2014.avi
Format : AVI
Format/Info : Audio Video Interleave
Format profile : OpenDML
File size : 2.19 GiB
Duration : 2h 26mn
Overall bit rate : 2 135 Kbps
Writing application : VirtualDubModRus 1.5.10.2 (build 2542/release)
Writing library : VirtualDubMod build 2542/release
Video
ID : 0
Format : MPEG-4 Visual
Format profile : Advanced [email protected]
Format settings, BVOP : Yes
Format settings, QPel : No
Format settings, GMC : No warppoints
Format settings, Matrix : Default (MPEG)
Codec ID : XVID
Codec ID/Hint : XviD
Duration : 2h 26mn
Bit rate : 1 445 Kbps
Width : 720 pixels
Height : 304 pixels
Display aspect ratio : 2.35:1
Frame rate : 23.976 fps
Color space : YUV
Chroma subsampling : 4:2:0
Bit depth : 8 bits
Scan type : Progressive
Bits/(Pixel*Frame) : 0.275
Stream size : 1.48 GiB (68%)
Writing library : XviD 64
Audio #1
ID : 1
Format : AC-3
Format/Info : Audio Coding 3
Mode extension : CM (complete main)
Codec ID : 2000
Duration : 2h 26mn
Bit rate mode : Constant
Bit rate : 448 Kbps
Channel(s) : 6 channels
Channel positions : Front: L C R, Side: L R, LFE
Sampling rate : 48.0 KHz
Stream size : 471 MiB (21%)
Alignment : Split accross interleaves
Interleave, duration : 42 ms (1.00 video frame)
Interleave, preload duration : 500 ms
Audio #2
ID : 2
Format : AC-3
Format/Info : Audio Coding 3
Mode extension : CM (complete main)
Codec ID : 2000
Duration : 2h 26mn
Bit rate mode : Constant
Bit rate : 224 Kbps
Channel(s) : 2 channels
Channel positions : Front: L R
Sampling rate : 48.0 KHz
Stream size : 235 MiB (10%)
Alignment : Aligned on interleaves
Interleave, duration : 42 ms (1.00 video frame)
Interleave, preload duration : 512 ms

Скриншоты




Создавать темы 21-Май-2015 22:41

[Профиль]  [ЛС] 

AlenLegion

Стаж: 5 лет 6 месяцев

Сообщений: 40

Симпатии: 1

Субтитры кажется там нет!

Создавать темы 15-Июн-2015 14:34

[Профиль]  [ЛС] 
Показать сообщения:    
Ответить на тему

Текущее время: 21-Окт 15:11

Часовой пояс: UTC + 5



Вы не можете начинать темы
Вы не можете отвечать на сообщения
Вы не можете редактировать свои сообщения
Вы не можете удалять свои сообщения
Вы не можете голосовать в опросах
Вы не можете прикреплять файлы к сообщениям
Вы не можете скачивать файлы