Неуловимые (Артем Аксененко) [2015 г., приключения, комедия, криминал, WEB-DLRip] iTunes

Ответить на тему
 

RecobaZico ®

Стаж: 2 года 5 месяцев

Сообщений: 22

Симпатии: 94

Неуловимые Год выпуска: 2015
Страна: Россия
Жанр: приключения, комедия, криминал
Продолжительность: 01:26:17
Перевод: Оригинал [iTunes]-Режиссер: Артем Аксененко-В ролях: Александра Бортич, Иван Шахназаров, Илья Маланин, Анвар Халилулаев, Денис Шведов, Евгений Мундум, Джемал Тетруашвили, Ксения Баскакова, Павел Юлку, Александр Сазонов-Описание: Ночью в центре Москвы сбита девушка, ей срочно нужна сложнейшая операция. Ее подруга Кира находит виновника, наглого и циничного олигарха Сергея Полянского, который отказывается признать свою вину и помочь пострадавшей. Ему плевать, у него все схвачено. В отчаянии Кира обращается за помощью к трем парням симпатизирующим ей - быковатому Феде, самоуверенному красавчику Артему и компьютерному гению Жене. Парни заключают между собой пакт - «поможем девушке, накажем негодяя, а потом решим, кто станет ее парнем».-Доп. информация:
 -Качество: WEB-DLRip
Формат: AVI
Видео кодек: XviD
Аудио кодек: AC3
Видео: XviD, 1874 kb/s, 720x304
Аудио: AC3, 384 kb/s (2 ch)

MediaInfo

Location: D:\Рекоба2015\NeUl0v1m1E.2015.O.WEB-DLRip.1400Mb.avi
Filename: NeUl0v1m1E.2015.O.WEB-DLRip.1400Mb.avi
File format: .avi (AVI)
File size: 1.37 GB
Duration: 1h 26mn
Navigate by chapters: Nope
Bitrate (all streams): 2 268 Kbps
...with: VirtualDubMod 1.5.10.2 (build 2540/release)
...by using: VirtualDubMod build 2540/release
Title: NeUl0v1m1E.2015.O.WEB-DLRip.1400Mb
Stream type: Video
Duration: 01:26:17
Codec: MPEG-4 Visual
Codec Profile: Advanced [email protected]
Codec ID: XVID
Video Size: 720 x 304 (2.35:1)
Frame rate: 25.000 fps
Stream size: 1.13 GiB (83%)
Bitrate: 1 874 Kbps
Codec library: XviD 1.2.1 (UTC 2008-12-04)
Colorspace: YUV
Scantype: Progressive
Bitdepth: 8 bits
Stream type: Audio #1
Duration: 01:26:17.960
Codec: AC-3
Codec ID: 2000
Samplerate: 48.0 KHz
Channels: 2 channels
Bitrate: 384 Kbps
Bitrate/Mode: Constant
Stream size: 237 MiB (17%)
Bitdepth: 16 bits
Compression mode: Lossy

Скриншоты





Последний раз редактировалось: RecobaZico (2015-05-22 08:08), всего редактировалось 1 раз

Создавать темы 22-Май-2015 07:57

[Профиль]  [ЛС] 

Николай Сенчи

Стаж: 6 лет 10 месяцев

Сообщений: 88

Симпатии: 6

Спасибо за релиз и раздачу.

Создавать темы 04-Окт-2015 19:44

[Профиль]  [ЛС] 
Показать сообщения:    
Ответить на тему

Текущее время: 18-Окт 08:56

Часовой пояс: UTC + 5



Вы не можете начинать темы
Вы не можете отвечать на сообщения
Вы не можете редактировать свои сообщения
Вы не можете удалять свои сообщения
Вы не можете голосовать в опросах
Вы не можете прикреплять файлы к сообщениям
Вы не можете скачивать файлы