Особо опасна / Barely Lethal (Кайл Ньюман) [2015 г. боевик, комедия, приключения, WEB-DLRip] [Лицензия iTunes]

Ответить на тему
 

RecobaZico ®

Стаж: 2 года 3 месяца

Сообщений: 22

Симпатии: 94

Особо опасна / Barely Lethal Страна: США
Жанр: боевик, комедия, приключения
Год выпуска: 2015
Продолжительность: 01:33:18-Перевод: Дублированное [iTunes]
Cубтитры: нет
Режиссер: Кайл Ньюман-В ролях: Хейли Стайнфелд, Сэмюэл Л. Джексон, Джессика Альба, Софи Тернер, Джейми Кинг, Дав Камерон, Дэн Фоглер, Рэйчел Харрис, Томас Манн, Александра Кросни-Описание: Меган — спецагент международного класса. В свои шестнадцать она владеет карате, стреляет без промаха и способна обезвредить взрослого вооруженного мужчину. Но Меган мечтает о жизни простого тинейджера — с тусовками и дискотеками. И судьба предоставляет ей такую возможность, но очень скоро супердевушка понимает, что в школе бывает опаснее, чем на на самой сложной спецоперации.-Рейтинги:
 -Качество видео: WEB-DLRip
Формат видео: AVI-Видео: XviD, 1736 kb/s, 720x384
Аудио: AC3, 384 Kb/s (6 ch)

MediaInfo

Location: D:\Рекоба2015\0s0b0.0p4sn4.2015.D.WEB-DLRip.1.46GB.avi
Filename: 0s0b0.0p4sn4.2015.D.WEB-DLRip.1.46GB.avi
File format: .avi (AVI)
File size: 1.46 GB
Duration: 1h 38mn
Navigate by chapters: Nope
Bitrate (all streams): 2 129 Kbps
...with: VirtualDubMod 1.5.10.3 | www.virtualdub-fr.org || (build 2550/release)
...by using: VirtualDubMod build 2550/release
Title: 0s0b0.0p4sn4.2015.D.WEB-DLRip.1.46GB
Stream type: Video
Duration: 01:38:14
Codec: MPEG-4 Visual
Codec Profile: Advanced [email protected]
Codec ID: XVID
Video Size: 720 x 384 (1.85:1)
Frame rate: 24.000 fps
Stream size: 1.19 GiB (82%)
Bitrate: 1 736 Kbps
Codec library: XviD 1.2.1 (UTC 2008-12-04)
Colorspace: YUV
Scantype: Progressive
Bitdepth: 8 bits
Stream type: Audio #1
Duration: 01:38:14.417
Codec: AC-3
Codec ID: 2000
Samplerate: 48.0 KHz
Channels: 6 channels
Bitrate: 384 Kbps
Bitrate/Mode: Constant
Stream size: 270 MiB (18%)
Bitdepth: 16 bits
Compression mode: Lossy

Скриншот c названием фильма

Скриншоты





Последний раз редактировалось: RecobaZico (2015-09-01 11:15), всего редактировалось 2 раз(а)

Создавать темы 22-Май-2015 18:53

[Профиль]  [ЛС] 

samud

Стаж: 5 лет 3 месяца

Сообщений: 108

Симпатии: 24

сюжет по ходу что то не очень

Создавать темы 23-Май-2015 16:43

[Профиль]  [ЛС] 

taziev

Стаж: 4 года 10 месяцев

Сообщений: 41

Симпатии: 1

сюжет сильно смахивает на "Агент под прикрытием"

Создавать темы 23-Май-2015 18:07

[Профиль]  [ЛС] 

vincent47

Стаж: 6 лет 6 месяцев

Сообщений: 89

Симпатии: 19

В целом на один раз фильм, в некоторых моментах хотелось перемотать даже. Как много заплатили Альбе и Джексону за то что бы они приняли в этом участие? ИМХО

Создавать темы 23-Май-2015 19:55

[Профиль]  [ЛС] 

tasikss

Стаж: 6 лет 7 месяцев

Сообщений: 139

Симпатии: 10

ну как посоветуете посмотреть ?

_________________
Подпись отключена за нарушение правил форума

Создавать темы 26-Май-2015 22:48

[Профиль]  [ЛС] 

Born2MakeUHappy

Стаж: 5 лет 4 месяца

Сообщений: 9

Симпатии: 11

937929ну как посоветуете посмотреть ?
На потолке с одним закрытым глазом

Создавать темы 31-Май-2015 10:59

[Профиль]  [ЛС] 
Показать сообщения:    
Ответить на тему

Текущее время: 20-Авг 18:43

Часовой пояс: UTC + 5



Вы не можете начинать темы
Вы не можете отвечать на сообщения
Вы не можете редактировать свои сообщения
Вы не можете удалять свои сообщения
Вы не можете голосовать в опросах
Вы не можете прикреплять файлы к сообщениям
Вы не можете скачивать файлы