Беглец / Run-ning-maen (Джо Дон О) [2013, Корея Южная, боевик, триллер, комедия, HDRip] (MVO)

Ответить на тему
 

akmal-19-66 ®

Стаж: 2 года 7 месяцев

Сообщений: 23

Симпатии: 120

Беглец / Run-ning-maen
-Страна: Корея Южная
Жанр: боевик, триллер, комедия
Год выпуска: 2013
Продолжительность: 02:07:15-Перевод: Любительский (многоголосый закадровый)
Cубтитры: нет
Режиссер: Джо Дон О-В ролях: Чо Ын Джи, Ким Сан Хо, Ли Мин Хо, О Чжон Се, Син Ха Гюн, Мин Чжи Хёк-Описание: Ча Чжон-У обычный автомеханик. У него есть семнадцатилетний сын по имени Ки-Хёк, всего лишь на семнадцать лет моложе своего папочки, в связи с чем у этой парочки довольно таки напряженные отношения. Чжон-У мечтает купить дом для себя и своего сына, подрабатывая для этого по ночам таксистом. Но он не простой таксист, Чжон-У высококлассный водитель, любящий скорость, и за более высокую оплату, чем в обычном такси, он быстро домчит вас в любую часть города.
Проблема начинается тогда, когда в один прекрасный день его клиент оказывается мертвым. По закону жанра, наш водитель становится главным подозреваемым и вынужден стать беглецом. Его, как зайца, гоняют по всему городу, а он пытается расследовать это дело и очистить свое имя, ведь только так он сможет спасти свои отношения с сыном. А парнишка тем временем не сидит на месте, озадаченный тем, что его отца подозревают в убийстве, он сам пытается разобраться во всем и раскрыть правду.-Качество видео: HDRip
Формат видео: AVI-Видео: XviD, 1542 Кбит/с, 720x304
Аудио: AC3, 6 ch, 448 Кбит/с - русский
Аудио 2: AC3, 6 ch, 448 Кбит/с - корейский

MediaInfo

General
Complete name : E:\download\strannaya\Beglec.2013.avi
Format : AVI
Format/Info : Audio Video Interleave
Format profile : OpenDML
File size : 2.18 GiB
Duration : 2h 7mn
Overall bit rate : 2 456 Kbps
Writing application : VirtualDubMod 1.5.10.2 (build 2542/release)
Writing library : VirtualDubMod build 2542/release
Video
ID : 0
Format : MPEG-4 Visual
Format profile : Advanced [email protected]
Format settings, BVOP : Yes
Format settings, QPel : No
Format settings, GMC : No warppoints
Format settings, Matrix : Default (MPEG)
Codec ID : XVID
Codec ID/Hint : XviD
Duration : 2h 7mn
Bit rate : 1 542 Kbps
Width : 720 pixels
Height : 304 pixels
Display aspect ratio : 2.35:1
Frame rate : 23.976 fps
Color space : YUV
Chroma subsampling : 4:2:0
Bit depth : 8 bits
Scan type : Progressive
Bits/(Pixel*Frame) : 0.294
Stream size : 1.37 GiB (63%)
Writing library : XviD 1.2.1 (UTC 2008-12-04)
Audio #1
ID : 1
Format : AC-3
Format/Info : Audio Coding 3
Mode extension : CM (complete main)
Codec ID : 2000
Duration : 2h 7mn
Bit rate mode : Constant
Bit rate : 448 Kbps
Channel(s) : 6 channels
Channel positions : Front: L C R, Side: L R, LFE
Sampling rate : 48.0 KHz
Stream size : 408 MiB (18%)
Alignment : Split accross interleaves
Interleave, duration : 42 ms (1.00 video frame)
Interleave, preload duration : 500 ms
Audio #2
ID : 2
Format : AC-3
Format/Info : Audio Coding 3
Mode extension : CM (complete main)
Codec ID : 2000
Duration : 2h 7mn
Bit rate mode : Constant
Bit rate : 448 Kbps
Channel(s) : 6 channels
Channel positions : Front: L C R, Side: L R, LFE
Sampling rate : 48.0 KHz
Stream size : 408 MiB (18%)
Alignment : Split accross interleaves
Interleave, duration : 42 ms (1.00 video frame)
Interleave, preload duration : 500 ms

Скриншоты




Создавать темы 23-Май-2015 03:59

[Профиль]  [ЛС] 

Топик был перенесен из форума Фильмы за 2010-2013 в форум Азиатские фильмы
LUKA

Создавать темы 23-Май-2015 08:51

 

bekstudio

Стаж: 6 лет 7 месяцев

Сообщений: 28

Когда раздача будет?

Создавать темы 23-Май-2015 21:48

[Профиль]  [ЛС] 

bekstudio

Стаж: 6 лет 7 месяцев

Сообщений: 28

Автор, почему оформил релиз , раз не даёш раздачу? Модератор пожалуйста закройте таких релизов!!!

Создавать темы 27-Май-2015 18:02

[Профиль]  [ЛС] 

Villain

Стаж: 7 лет 6 месяцев

Сообщений: 61

Симпатии: 2

Пожалуйста помогите с раздачей!

Создавать темы 07-Июн-2015 08:05

[Профиль]  [ЛС] 
Показать сообщения:    
Ответить на тему

Текущее время: 18-Дек 10:02

Часовой пояс: UTC + 5



Вы не можете начинать темы
Вы не можете отвечать на сообщения
Вы не можете редактировать свои сообщения
Вы не можете удалять свои сообщения
Вы не можете голосовать в опросах
Вы не можете прикреплять файлы к сообщениям
Вы не можете скачивать файлы