Бесконечность / Infini (Шейн Эббесс) [2015, Австралия, фантастика, триллер, драма, WEB-DLRip] [RAIM&NASTR]

Ответить на тему
 

Каротажник ®

Стаж: 3 года 10 месяцев

Сообщений: 195

Симпатии: 211

Бесконечность / Infini Страна: Австралия
Жанр: фантастика, триллер, драма
Год выпуска: 2015--Продолжительность: 01:50:42
Перевод: Любительское (двухголосное) [RAIM&NASTR]--Режиссер: Шейн Эббесс
В ролях: Дэниэл МакФерсон, Грэйс Хуанг, Люк Хемсворт, Брен Фостер, Люк Форд, Дуэйн Стивенсон, Луиса Миньоне, Тесс Хобрич, Гарри Павлидис, Кевин Коуплэнд--Описание: Элитный спасательный отряд переброшен на удаленный горнодобывающий комплекс, чтобы спасти Уита Кармайкла, единственного выжившего после биологической катастрофы.-- 
--Качество видео: WEB-DLRip
Формат видео: AVI--Видео: Xvid 720x304 23.976fps 1671kbps
Аудио: AC3 48000Hz stereo 192kbps

MediaInfo

Format : AVI
Format/Info : Audio Video Interleave
File size : 1.45 GiB
Duration : 1h 50mn
Overall bit rate : 1 873 Kbps
Writing application : VirtualDubMod 1.5.10.3 | www.virtualdub-fr.org || (build 2550/release)
Writing library : VirtualDubMod build 2550/release
Video
ID : 0
Format : MPEG-4 Visual
Format profile : Advanced [email protected]
Format settings, BVOP : Yes
Format settings, QPel : No
Format settings, GMC : No warppoints
Format settings, Matrix : Default (MPEG)
Codec ID : XVID
Codec ID/Hint : XviD
Duration : 1h 50mn
Bit rate : 1 671 Kbps
Width : 720 pixels
Height : 304 pixels
Display aspect ratio : 2.35:1
Frame rate : 23.976 fps
Color space : YUV
Chroma subsampling : 4:2:0
Bit depth : 8 bits
Scan type : Progressive
Compression mode : Lossy
Bits/(Pixel*Frame) : 0.319
Stream size : 1.29 GiB (89%)
Writing library : XviD 73
Audio
ID : 1
Format : AC-3
Format/Info : Audio Coding 3
Mode extension : CM (complete main)
Format settings, Endianness : Big
Codec ID : 2000
Duration : 1h 50mn
Bit rate mode : Constant
Bit rate : 192 Kbps
Channel(s) : 2 channels
Channel positions : Front: L R
Sampling rate : 48.0 KHz
Bit depth : 16 bits
Compression mode : Lossy
Stream size : 152 MiB (10%)
Alignment : Split accross interleaves
Interleave, duration : 42 ms (1.00 video frame)
Interleave, preload duration : 500 ms

Скриншоты


Создавать темы 24-Май-2015 04:15

[Профиль]  [ЛС] 

ivan_jp

Стаж: 3 года 7 месяцев

Сообщений: 8

Симпатии: 3

Рейтинг IMDB 5.4

Создавать темы 24-Май-2015 09:34

[Профиль]  [ЛС] 

McFLY

Стаж: 5 лет 5 месяцев

Сообщений: 658

Симпатии: 22

Рейтинг нереально оптимистичный!

Создавать темы 24-Май-2015 10:59

[Профиль]  [ЛС] 

outoforder

Стаж: 4 года 9 месяцев

Сообщений: 812

Симпатии: 172

Рейтинг нереально оптимистичный!
там 8 голосов ag

Создавать темы 24-Май-2015 13:39

[Профиль]  [ЛС] 

ralex

Стаж: 5 лет 7 месяцев

Сообщений: 289

Симпатии: 28

ХРЕНЬ ПОЛНЕЙШАЯ!

Создавать темы 26-Май-2015 01:08

[Профиль]  [ЛС] 

mars751

Стаж: 5 лет 4 месяца

Сообщений: 227

Симпатии: 113

ахахах смотрел этот фильм. скажу он не так интересен! посмотреть можно если вам смотреть нечего. а так фильм фуфло....

Создавать темы 26-Май-2015 03:42

[Профиль]  [ЛС] 

abatova.n

Стаж: 3 года 9 месяцев

Сообщений: 16

Симпатии: 6

Лучше не качать время потерял зря

Создавать темы 27-Май-2015 22:42

[Профиль]  [ЛС] 
Показать сообщения:    
Ответить на тему

Текущее время: 22-Авг 14:14

Часовой пояс: UTC + 5



Вы не можете начинать темы
Вы не можете отвечать на сообщения
Вы не можете редактировать свои сообщения
Вы не можете удалять свои сообщения
Вы не можете голосовать в опросах
Вы не можете прикреплять файлы к сообщениям
Вы не можете скачивать файлы