Великий уравнитель / The Equalizer (Антуан Фукуа) [2014, США, боевик, триллер, криминал, HDRip] (DVO)

Ответить на тему
 

akmal-19-66 ®

Стаж: 2 года 6 месяцев

Сообщений: 23

Симпатии: 120

Великий уравнитель / The Equalizer
-Страна: США
Жанр: боевик, триллер, криминал
Год выпуска: 2014
Продолжительность: 02:12:03-Перевод: Любительский (двухголосый закадровый)
Cубтитры: нет
Режиссер: Антуан Фукуа-В ролях: Дензел Вашингтон, Мартон Чокаш, Хлоя Грейс Морец, Дэвид Харбор, Хейли Беннетт, Билл Пуллман, Мелисса Лео, Дэвид Мюнье, Джонни Скуртис, Алекс Видов-Описание: Роберт МакКолл — бывший спецназовец. После увольнения со службы он собирается начать нормальную мирную жизнь, дав себе обещание больше никогда не брать в руки оружия. Но в один прекрасный момент он встречает молодую девушку, зарабатывающую на жизнь проституцией, которую на его глазах избивают бандиты и увозят в неизвестном направлении. Тогда он решает отыскать ее, после чего вступает в неравную схватку с русской мафией и продажными полицейскими. Ради справедливости он готов нарушить собственное обещание и применить оружие против людей, которые просто не заслуживают жить в этом мире…-Качество видео: HDRip
Формат видео: AVI-Видео: Xvid 720x304 23.98fps
Аудио: Dolby AC3 48000Hz 6ch 384kbps

MediaInfo

General
Complete name : F:\D disk\Kino\kino\Velikyi.Uravnitel.2014.A1.HDRip.1400MB.avi
Format : AVI
Format/Info : Audio Video Interleave
File size : 1.37 GiB
Duration : 2h 12mn
Overall bit rate : 1 482 Kbps
Writing application : VirtualDubMod 1.5.10.2 (build 2540/release)
Writing library : VirtualDubMod build 2540/release
Video
ID : 0
Format : MPEG-4 Visual
Format profile : Advanced [email protected]
Format settings, BVOP : Yes
Format settings, QPel : No
Format settings, GMC : No warppoints
Format settings, Matrix : Default (MPEG)
Codec ID : XVID
Codec ID/Hint : XviD
Duration : 2h 12mn
Bit rate : 1 089 Kbps
Width : 720 pixels
Height : 304 pixels
Display aspect ratio : 2.35:1
Frame rate : 23.976 fps
Color space : YUV
Chroma subsampling : 4:2:0
Bit depth : 8 bits
Scan type : Progressive
Bits/(Pixel*Frame) : 0.207
Stream size : 1.00 GiB (73%)
Writing library : XviD 1.2.1 (UTC 2008-12-04)
Audio
ID : 1
Format : AC-3
Format/Info : Audio Coding 3
Mode extension : CM (complete main)
Codec ID : 2000
Duration : 2h 12mn
Bit rate mode : Constant
Bit rate : 384 Kbps
Channel(s) : 6 channels
Channel positions : Front: L C R, Side: L R, LFE
Sampling rate : 48.0 KHz
Stream size : 363 MiB (26%)
Alignment : Split accross interleaves
Interleave, duration : 42 ms (1.00 video frame)
Interleave, preload duration : 500 ms

Скриншоты




Создавать темы 24-Май-2015 13:42

[Профиль]  [ЛС] 

SMaIL

Стаж: 3 года 9 месяцев

Сообщений: 740

Симпатии: 233

Великий уравнитель / The Equalizer (Антуан Фукуа) [2014; США; Боевик, триллер, криминал; HDRip] [iTunes]

Создавать темы 24-Май-2015 18:04

[Профиль]  [ЛС] 
Показать сообщения:    
Ответить на тему

Текущее время: 20-Ноя 21:55

Часовой пояс: UTC + 5



Вы не можете начинать темы
Вы не можете отвечать на сообщения
Вы не можете редактировать свои сообщения
Вы не можете удалять свои сообщения
Вы не можете голосовать в опросах
Вы не можете прикреплять файлы к сообщениям
Вы не можете скачивать файлы