Абдулладжан, или Посвящается Стивену Спилбергу (Зульфикар Мусаков) [1991, фантастика, комедия, TVRip, AVC]

Ответить на тему
 

Gen-X ®

Стаж: 4 года 7 месяцев

Сообщений: 125

Симпатии: 56

Абдулладжан, или Посвящается Стивену Спилбергу- Год выпуска: 1991
Жанр: фантастика, комедия
Производство: Киностудия «Ватан»
Продолжительность: 1:27:43
Аудио №1: Узбекский (оригинальная дорожка)
Аудио №2: Русский (многоголосый закадровый)-Режиссёр: Зульфикар Мусаков
Сценарий: Рихсивой Мухамеджанов, Зульфикар Мусаков
Продюсер: Фархад Абдусаидов
Оператор: Талгат Мансуров
Композитор: Мирхалил Махмудов
Художник: Хамза Каджикулов
В ролях: Раджаб Адашев, Туйги Арипов, Тути Юсупова, Шухрат Каюмов, Владимир Меньшов, Владимир Цветов, Мирхосил Арипов, Сергей Дрейден, Джавлон Хамраев, Ходжиакбар Нурматов-Описание: Сторож сельмага, посмотрев в местном видеосалоне фильм Стивена Спилберга, решил написать письмо в Голливуд о том, что произошло в его кишлаке. А произошло буквально следующее: колхоз «Коммунизм» посетил инопланетянин, которого все с нетерпением ждали и организовали поиск, как только получили из центра телеграмму о его возможном приземлении.
Базарбай, нашедший инопланетянина, дал ему имя Абдулладжан и привел в свой дом. Шестеро детей Базарбая приняли его за внебрачного сына своего отца и полюбили как родного. Любопытству Абдулладжана не было границ, его удивляло абсолютно все, и он, как порядочный инопланетянин, сразу же включился в колхозные проблемы, поставив перед собой простую и ясную задачу — сделать так, чтобы людям было хорошо…- -Качество видео: TVRip
Формат видео: MKV
Видео кодек: MPEG2
Аудио кодек: MP3
Видео: 704x576 pixels, 4:3, 25.000 fps, 1 892 Kbps
Аудио №1: Узбекский, MP-3, 192 Kbps, 48.0 KHz, 2 channels
Аудио №2: Русский, MP-3, 192 Kbps, 48.0 KHz, 2 channels

MediaInfo

Video
ID : 1
Format : MPEG Video
Format version : Version 2
Format profile : [email protected]
Format settings, BVOP : No
Format settings, Matrix : Custom
Codec ID : V_MPEG2
Codec ID/Info : MPEG 1 or 2 Video
Duration : 1h 27mn
Bit rate : 1 892 Kbps
Width : 704 pixels
Height : 576 pixels
Display aspect ratio : 4:3
Frame rate mode : Constant
Frame rate : 25.000 fps
Standard : PAL
Color space : YUV
Chroma subsampling : 4:2:0
Bit depth : 8 bits
Scan type : Interlaced
Scan order : Top Field First
Compression mode : Lossy
Bits/(Pixel*Frame) : 0.187
Time code of first frame : 00:00:00:00
Time code source : Group of pictures header
Stream size : 1.16 GiB (81%)
Source encoded stream size : encoded by TMPGEnc (ver. 2.524.63.181)
Title : Абдулладжан, Или Посвящается Стивену Спилбергу
Writing library : TMPGEnc 2.524.63.181
Language : Uzbek
Default : Yes
Forced : No
Audio #1
ID : 2
Format : MPEG Audio
Format version : Version 1
Format profile : Layer 3
Mode : Joint stereo
Codec ID : A_MPEG/L3
Codec ID/Hint : MP3
Duration : 1h 27mn
Bit rate mode : Constant
Bit rate : 192 Kbps
Channel(s) : 2 channels
Sampling rate : 48.0 KHz
Compression mode : Lossy
Stream size : 120 MiB (8%)
Title : MP-3 2.0-Ch
Language : Uzbek
Default : Yes
Forced : No
Audio #2
ID : 3
Format : MPEG Audio
Format version : Version 1
Format profile : Layer 3
Mode : Joint stereo
Codec ID : A_MPEG/L3
Codec ID/Hint : MP3
Duration : 1h 27mn
Bit rate mode : Constant
Bit rate : 192 Kbps
Channel(s) : 2 channels
Sampling rate : 48.0 KHz
Compression mode : Lossy
Stream size : 120 MiB (8%)
Title : MP-3 2.0-Ch
Language : Russian
Default : No
Forced : No

Скриншоты







-

Создавать темы 24-Май-2015 15:10

[Профиль]  [ЛС] 

TimaK

Стаж: 6 лет 3 месяца

Сообщений: 129

Симпатии: 23

спс

Создавать темы 24-Май-2015 20:15

[Профиль]  [ЛС] 

Gen-X ®

Стаж: 4 года 7 месяцев

Сообщений: 125

Симпатии: 56

937649спс
aa

Создавать темы 24-Май-2015 20:41

[Профиль]  [ЛС] 

ildarf1

Стаж: 3 года 10 месяцев

Сообщений: 71

Симпатии: 9

ХОЛМИРЗА РУЛИТ!

Создавать темы 25-Май-2015 21:34

[Профиль]  [ЛС] 

Zaddera

Стаж: 2 года 4 месяца

Сообщений: 11

Симпатии: 4

Аудио №1: Узбекский (оригинальная дорожка)

Создавать темы 30-Май-2015 15:30

[Профиль]  [ЛС] 

alcor

Стаж: 2 года 4 месяца

Сообщений: 45

Симпатии: 8

класс давно забытые фильмы спасибо за релиз эх в детстве любил смотреть этот фильм

Создавать темы 02-Ноя-2015 20:31

[Профиль]  [ЛС] 

Ирина

Стаж: 3 года 7 месяцев

Сообщений: 57

Симпатии: 11

Фильм просто шикарный. У меня есть, но только на русском языке, а вся изюминка именно в русско-узбекском. Люди!!! Помогите скачать! Заранее спасибо!

Создавать темы 14-Окт-2016 01:49

[Профиль]  [ЛС] 

zart

Стаж: 4 года 6 месяцев

Сообщений: 61

газу даите

Создавать темы 08-Мар-2017 01:44

[Профиль]  [ЛС] 
Показать сообщения:    
Ответить на тему

Текущее время: 23-Авг 07:33

Часовой пояс: UTC + 5



Вы не можете начинать темы
Вы не можете отвечать на сообщения
Вы не можете редактировать свои сообщения
Вы не можете удалять свои сообщения
Вы не можете голосовать в опросах
Вы не можете прикреплять файлы к сообщениям
Вы не можете скачивать файлы