Четверо 3 / Si Da Ming Bu 3 (Гордон Чан) [2014, Китай, Гонконг, боевик, фэнтези, HDRip] (DVO : группа "GREEN TEA" (Ольга Гринтиева и Дмитрий Позн)

Ответить на тему
 

akmal-19-66 ®

Стаж: 2 года 5 месяцев

Сообщений: 23

Симпатии: 120

Четверо 3 / Si Da Ming Bu 3
-Страна: Китай, Гонконг
Жанр: боевик, фэнтези
Год выпуска: 2014
Продолжительность: 01:46:37-Перевод: Любительский (двухголосый закадровый) Доп. инфо о переводе группа "GREEN TEA" (Ольга Гринтиева и Дмитрий Позн
Cубтитры: нет
Режиссер: Гордон Чан-В ролях: Рональд Чэн, Колин Чоу, Чао Ден, Йифей Лью, Сиобо Ву, Уэйз Ли, Алек Су, Янь Лю и др.-Описание: Новое дело для четырех констеблей из Небесной Полиции - Жизнекрад, Хладнокровный, Железнорукий и Бесстрастная берутся за расследование.-Качество видео: HDRip
Формат видео: AVI-Видео: XviD, 720x304, 1698 Kbps
Аудио: AC3, 2 ch, 256 Kbps

MediaInfo

General
Complete name : E:\download\strannaya\ Four 3 (2014) HDRip.avi
Format : AVI
Format/Info : Audio Video Interleave
Format profile : OpenDML
File size : 1.46 GiB
Duration : 1h 46mn
Overall bit rate : 1 966 Kbps
Writing application : XviD4PSP 6.0 / 54.29.105
Video
ID : 0
Format : MPEG-4 Visual
Format profile : Advanced [email protected]
Format settings, BVOP : Yes
Format settings, QPel : No
Format settings, GMC : No warppoints
Format settings, Matrix : Default (H.263)
Codec ID : XVID
Codec ID/Hint : XviD
Duration : 1h 46mn
Bit rate : 1 698 Kbps
Width : 720 pixels
Height : 304 pixels
Display aspect ratio : 2.35:1
Frame rate : 23.976 fps
Color space : YUV
Chroma subsampling : 4:2:0
Bit depth : 8 bits
Scan type : Progressive
Compression mode : Lossy
Bits/(Pixel*Frame) : 0.324
Stream size : 1.26 GiB (86%)
Title : [GREEN TEA] Четверо 3
Writing library : XviD 64
Audio
ID : 1
Format : AC-3
Format/Info : Audio Coding 3
Mode extension : CM (complete main)
Format settings, Endianness : Big
Codec ID : 2000
Duration : 1h 46mn
Bit rate mode : Constant
Bit rate : 256 Kbps
Channel(s) : 2 channels
Channel positions : Front: L R
Sampling rate : 48.0 KHz
Bit depth : 16 bits
Compression mode : Lossy
Stream size : 195 MiB (13%)
Alignment : Aligned on interleaves
Interleave, duration : 32 ms (0.77 video frame)
Title : AC3 2.0CH @ 192K [DVO | GREEN TEA]

Скриншоты





Создавать темы 24-Май-2015 23:45

[Профиль]  [ЛС] 
Показать сообщения:    
Ответить на тему

Текущее время: 24-Окт 01:48

Часовой пояс: UTC + 5



Вы не можете начинать темы
Вы не можете отвечать на сообщения
Вы не можете редактировать свои сообщения
Вы не можете удалять свои сообщения
Вы не можете голосовать в опросах
Вы не можете прикреплять файлы к сообщениям
Вы не можете скачивать файлы