Отдельный номер / Private Number (ЛазРаэль Лисон) [2014, США, ужасы, триллер, детектив, WEB-DLRip] DVO [Coldfilm]

Ответить на тему
 

akmal-19-66 ®

Стаж: 2 года 4 месяца

Сообщений: 23

Симпатии: 120

Отдельный номер / Private Number
-Страна: США
Жанр: ужасы, триллер, детектив
Год выпуска: 2014
Продолжительность: 01:37:16-Перевод: Любительский (двухголосый закадровый) Доп. инфо о переводе [Coldfilm]
Cубтитры: нет
Режиссер: ЛазРаэль Лисон-В ролях: Джадд Нельсон, Том Сайзмор, Николь Том, Хэл Озсэн, Джоэль Майкли, Рэй Стоуни, Кайл Т. Хеффнер, Али Костильо, Камбер Хейлик, Гари МакДональд-Описание: Ряд зловещих телефонных звонков преследует экс-алкогольного писателя, поскольку он изо всех сил пытается закончить роман. Усилия проследить требования приводят к тупикам, оставляя автора без выбора, но решить тайну самого. Поскольку он соединяет скудную информацию, он обнаруживает, что местная полиция скрывает детали об ужасающем серийном убийце. В его одержимом поиске ответов он теряет свой контроль над реальностью и спирали вниз в водоворот насилия и террора-Качество видео: WEB-DLRip
Формат видео: AVI-Видео: Xvid 720x304 23.98fps
Аудио: Dolby AC3 48000Hz stereo 192kbps

MediaInfo

General
Complete name : E:\download\strannaya\Private.Number.2014.L2.WEB-DLRip.1400Mb.avi
Format : AVI
Format/Info : Audio Video Interleave
File size : 1.36 GiB
Duration : 1h 37mn
Overall bit rate : 2 007 Kbps
Writing application : VirtualDubMod 1.5.10.2 (build 2540/release)
Writing library : VirtualDubMod build 2540/release
Video
ID : 0
Format : MPEG-4 Visual
Format profile : Advanced [email protected]
Format settings, BVOP : Yes
Format settings, QPel : No
Format settings, GMC : No warppoints
Format settings, Matrix : Default (MPEG)
Codec ID : XVID
Codec ID/Hint : XviD
Duration : 1h 37mn
Bit rate : 1 805 Kbps
Width : 720 pixels
Height : 304 pixels
Display aspect ratio : 2.35:1
Frame rate : 23.976 fps
Color space : YUV
Chroma subsampling : 4:2:0
Bit depth : 8 bits
Scan type : Progressive
Bits/(Pixel*Frame) : 0.344
Stream size : 1.23 GiB (90%)
Writing library : XviD 1.2.1 (UTC 2008-12-04)
Audio
ID : 1
Format : AC-3
Format/Info : Audio Coding 3
Mode extension : CM (complete main)
Codec ID : 2000
Duration : 1h 37mn
Bit rate mode : Constant
Bit rate : 192 Kbps
Channel(s) : 2 channels
Channel positions : Front: L R
Sampling rate : 48.0 KHz
Stream size : 134 MiB (10%)
Alignment : Split accross interleaves
Interleave, duration : 42 ms (1.00 video frame)
Interleave, preload duration : 500 ms

Скриншоты




Создавать темы 25-Май-2015 00:10

[Профиль]  [ЛС] 
Показать сообщения:    
Ответить на тему

Текущее время: 21-Сен 08:29

Часовой пояс: UTC + 5



Вы не можете начинать темы
Вы не можете отвечать на сообщения
Вы не можете редактировать свои сообщения
Вы не можете удалять свои сообщения
Вы не можете голосовать в опросах
Вы не можете прикреплять файлы к сообщениям
Вы не можете скачивать файлы