Два дня в долине / 2 Days in the Valley (Джон Херцфелд) [1996, США, Комедия, криминал, DVDRip] (MVO)

Ответить на тему
 

Decadence ®

Стаж: 5 лет 2 месяца

Сообщений: 65

Симпатии: 32

Два дня в долине / 2 Days in the Valley
Страна: США
Жанр: Комедия, криминал
Год выпуска: 1996
Продолжительность: 01:40:00
Перевод: Профессиональный (многоголосый закадровый)
Cубтитры: нет
Режиссер: Джон Херцфелд
В ролях: Дэнни Айелло, Грегг Краттуэлл, Джефф Дэниелс, Тери Хэтчер, Гленн Хедли, Питер Хортон, Марша Мейсон, Пол Мазурски, Джеймс Спэйдер, Эрик Столц
Описание: Известная спортсменка Бекки Фокс нанимает двух киллеров: Ли и Дозмо, чтобы убить своего бывшего мужа и получить страховку. Эта часть плана проходит успешно, а вот дальше все идет кувырком.
Убитый остается в живых, сообщница становится жертвой, самоубийца — убийцей, а два детектива Элвин и Уэс, работающие по тривиальному делу с массажным салоном, оказываются чересчур близко от летящих пуль.
 
Качество видео: DVDRip
Формат видео: AVI
Видео: DivX, 640x284, 23.976 fps, 840 kbps
Аудио: MP3, 48.0 KHz, 2 channels, 128 kbps

MediaInfo

General
Complete name : 2 Days In The Valley.avi
Format : AVI
Format/Info : Audio Video Interleave
File size : 699 MiB
Duration : 1h 40mn
Overall bit rate : 977 Kbps
Writing application : VirtualDubModRus 1.5.10.2 (build 2540/release)
Writing library : VirtualDubMod build 2540/release
Video #0
ID : 0
Format : MPEG-4 Visual
Format settings, BVOP : 1
Format settings, QPel : No
Format settings, GMC : No warppoints
Format settings, Matrix : Default (H.263)
Muxing mode : Packed bitstream
Codec ID : DX50
Codec ID/Hint : DivX 5
Duration : 1h 40mn
Bit rate : 840 Kbps
Width : 640 pixels
Height : 284 pixels
Display aspect ratio : 2.25:1
Original display aspect ratio : 2.25:1
Frame rate : 23.976 fps
Color space : YUV
Chroma subsampling : 4:2:0
Bit depth : 8 bits
Scan type : Progressive
Compression mode : Lossy
Bits/(Pixel*Frame) : 0.193
Stream size : 601 MiB (86%)
Writing library : DivX 6.8.5 (UTC 2009-08-20)
Audio #1
ID : 1
Format : MPEG Audio
Format version : Version 1
Format profile : Layer 3
Mode : Joint stereo
Mode extension : MS Stereo
Codec ID : 55
Codec ID/Hint : MP3
Duration : 1h 40mn
Bit rate mode : Constant
Bit rate : 128 Kbps
Channel(s) : 2 channels
Sampling rate : 48.0 KHz
Compression mode : Lossy
Stream size : 91.6 MiB (13%)
Alignment : Split accross interleaves
Interleave, duration : 42 ms (1.00 video frame)
Interleave, preload duration : 500 ms
Language : Russian

Скриншот c названием фильма

Скриншоты



Создавать темы 25-Май-2015 20:04

[Профиль]  [ЛС] 
Показать сообщения:    
Ответить на тему

Текущее время: 16-Дек 00:49

Часовой пояс: UTC + 5



Вы не можете начинать темы
Вы не можете отвечать на сообщения
Вы не можете редактировать свои сообщения
Вы не можете удалять свои сообщения
Вы не можете голосовать в опросах
Вы не можете прикреплять файлы к сообщениям
Вы не можете скачивать файлы